<?xml version="1.0" standalone="no"?>
<!DOCTYPE svg PUBLIC "-//W3C//DTD SVG 1.1//EN" "http://www.w3.org/Graphics/SVG/1.1/DTD/svg11.dtd" >
<svg xmlns="http://www.w3.org/2000/svg">
<metadata>
This is a custom SVG webfont generated by Font Squirrel.
Copyright   : Copyright c Magenta Ltd 2004
Foundry     : Magenta Ltd
Foundry URL : httpwwwmagentagr
</metadata>
<defs>
<font id="MgOpenModataRegular" horiz-adv-x="1218" >
<font-face units-per-em="2048" ascent="1638" descent="-410" />
<missing-glyph horiz-adv-x="552" />
<glyph unicode=" "  horiz-adv-x="552" />
<glyph unicode="&#x09;" horiz-adv-x="552" />
<glyph unicode="&#xa0;" horiz-adv-x="552" />
<glyph unicode="!" horiz-adv-x="405" d="M0 106q0 100 104 101q49 0 79 -33t30 -78q0 -96 -102 -96q-51 0 -82 35q-29 28 -29 71zM25 371v1114q0 88 75 88q74 0 74 -88v-1114q0 -76 -76 -76q-73 0 -73 76z" />
<glyph unicode="&#x22;" horiz-adv-x="632" d="M0 1186v301q0 88 76 88q74 0 74 -88v-301q0 -80 -76 -80q-74 0 -74 80zM285 1186v301q0 88 77 88q78 0 78 -88v-301q0 -80 -80 -80q-75 0 -75 80z" />
<glyph unicode="#" horiz-adv-x="1292" d="M0 526q0 74 150 74q27 0 62.5 -2t39.5 -2l51 332h-151q-78 0 -78 69q0 63 78 64h167l58 434q10 76 65 76q29 0 52.5 -22.5t19.5 -53.5l-61 -434h286l62 434q10 78 65 78q29 0 50.5 -22.5t17.5 -55.5l-57 -434q4 0 35.5 2t54.5 2q133 0 133 -70q0 -68 -90 -67h-150 l-51 -332h35q31 2 51 2q135 0 135 -72q0 -74 -143 -73q-25 0 -56.5 2t-37.5 2l-56 -357q-14 -102 -88 -102q-57 0 -47 78l55 381h-288l-52 -357q-16 -102 -88 -102q-59 0 -49 78l56 381q-4 0 -36 -2t-55 -2q-145 -1 -145 73zM385 596h289l49 332h-287z" />
<glyph unicode="$" horiz-adv-x="1091" d="M0 1163q0 147 107.5 268t279.5 146v78q-2 66 43 65q43 0 43 -61v-82q86 0 199 -49q133 -59 133 -133q0 -72 -70 -72q-20 0 -100 50t-162 54v-516q219 -68 330 -200q96 -117 96 -267q0 -174 -123 -309q-129 -137 -303 -137q0 -23 2 -100q0 -55 -43 -56q-43 0 -45 62v94 q-61 -4 -166 33q-92 33 -149 69q-31 20 -31 60q0 74 68 73q23 0 114.5 -49t163.5 -53v631q-193 47 -295 164q-92 102 -92 237zM168 1190q0 -80 53 -143q59 -70 166 -103v483q-100 -18 -159.5 -85.5t-59.5 -151.5zM473 147q113 18 184.5 101.5t71.5 185.5q0 209 -256 295 v-582z" />
<glyph unicode="%" horiz-adv-x="1630" d="M0 1204q0 152 84 254q94 113 258 113q160 0 254 -119q86 -106 86 -260t-84 -260q-96 -117 -256 -117q-158 0 -254 121q-88 112 -88 268zM139 1196q0 -106 51 -182q57 -82 152 -82q98 0 158 80q51 72 51 178t-55.5 185t-153.5 79q-96 0 -152 -80q-51 -72 -51 -178zM369 39 q0 16 6 33l557 1429q23 61 80 62q61 0 61 -66q0 -25 -12 -53l-572 -1444q-10 -27 -47 -27q-73 0 -73 66zM758 385q0 152 84 254q96 117 262 117q156 0 250 -121q84 -109 84 -264q0 -154 -82 -256q-92 -117 -252 -117q-162 0 -258 121q-88 110 -88 266zM897 379 q0 -109 51 -182q57 -82 156 -82q98 0 153 78q51 72 52 176q0 109 -54 184q-57 86 -151 86q-98 0 -156 -82q-51 -74 -51 -178z" />
<glyph unicode="&#x26;" horiz-adv-x="1482" d="M0 426q0 289 360 518q-129 135 -129 313q0 133 77 224.5t212 91.5q147 0 244 -98q88 -94 88 -224q0 -231 -254 -340l385 -438l123 205q45 80 102 80q47 0 62 -49q16 -51 -23 -113l-157 -258l182 -201q18 -20 18 -49q0 -35 -25.5 -63.5t-56.5 -28.5q-29 0 -53 24l-188 201 q-176 -266 -455 -266q-203 0 -357.5 139t-154.5 332zM166 424q0 -135 103.5 -229.5t244.5 -94.5q227 0 371 238l-441 489q-278 -184 -278 -403zM387 1286q0 -156 111 -258q102 33 155 105q51 63 52 137q0 72 -47.5 122t-127.5 50q-143 0 -143 -156z" />
<glyph unicode="'" horiz-adv-x="497" d="M0 1161q0 12 4 23l125 315q29 76 92 76q33 0 58.5 -24.5t25.5 -59.5q0 -20 -10 -43l-133 -301q-25 -55 -80 -55q-31 0 -56.5 20t-25.5 49z" />
<glyph unicode="(" horiz-adv-x="563" d="M0 741q0 547 205 752q25 25 49 25q57 0 57 -66q0 -25 -16 -41q-86 -86 -135 -276q-49 -182 -49 -406q0 -248 59 -455q66 -231 188 -352q12 -12 13 -28q0 -20 -19.5 -37t-48.5 -17q-39 0 -76 37q-104 104 -168 352q-59 238 -59 512z" />
<glyph unicode=")" horiz-adv-x="563" d="M0 -106q0 -20 19.5 -37t48.5 -17q39 0 73 37q106 104 170 352q59 238 60 512q0 547 -205 752q-25 25 -51 25q-55 0 -56 -66q0 -25 17 -41q86 -86 135 -276q49 -182 49 -406q0 -248 -59 -455q-66 -231 -189 -352q-12 -12 -12 -28z" />
<glyph unicode="*" d="M268 1317q0 66 68 65q39 0 117 -55l102 -78q-16 238 -16 240q0 57 69 57q68 0 64 -61l-17 -236q51 39 103 76q88 59 119 59q29 0 50 -20.5t21 -48.5q0 -43 -55 -66l-205 -84l205 -82q55 -23 55 -77q0 -68 -74 -68q-41 0 -118 61q-51 41 -101 84q16 -227 17 -231 q0 -80 -68 -80q-66 0 -65 90l16 221q-51 -39 -100 -77q-90 -63 -123 -64q-57 0 -58 64q0 59 45 77l203 82l-203 84q-51 21 -51 68z" />
<glyph unicode="+" d="M59 561q0 84 84 84h373v383q0 80 78 80q35 0 62.5 -21.5t27.5 -58.5v-383h371q47 0 74.5 -26.5t27.5 -61.5q0 -84 -102 -84h-371v-397q0 -35 -26.5 -56.5t-61.5 -21.5q-80 0 -80 78v397h-373q-84 0 -84 88z" />
<glyph unicode="," horiz-adv-x="495" d="M0 -207q0 12 6 27l137 336q29 66 84 65q37 0 60.5 -28.5t11.5 -61.5l-156 -362q-23 -51 -67 -52q-29 0 -52.5 22.5t-23.5 53.5z" />
<glyph unicode="-" horiz-adv-x="761" d="M6 565q0 31 24.5 55.5t65.5 24.5h422q88 0 88 -80q0 -76 -88 -76h-422q-90 0 -90 76z" />
<glyph unicode="." horiz-adv-x="407" d="M0 106q0 41 27.5 71t78.5 30q49 0 79 -34t30 -77q0 -96 -102 -96q-53 0 -84 35q-29 28 -29 71z" />
<glyph unicode="../../../../default.htm" d="M258 0q-18 43 6 104l565 1395q31 76 78 76q59 0 60 -72q0 -16 -6 -33l-562 -1431q-33 -80 -86 -80q-39 0 -55 41z" />
<glyph unicode="0" d="M104 768q0 326 127 553q141 250 377 250q238 0 379 -254q127 -227 127 -555q0 -322 -123 -543q-135 -246 -366 -246q-248 0 -392 248q-129 223 -129 547zM279 764q0 -268 86 -453q94 -205 260 -205q141 0 227 211q80 193 80 461q0 264 -80 443q-88 201 -244 200 q-154 0 -246 -204q-83 -187 -83 -453z" />
<glyph unicode="1" d="M389 1442q0 74 88 74h252q74 0 90 -37q10 -18 10 -105v-1296q0 -78 -73 -78q-76 0 -76 78v1288h-201q-90 0 -90 76z" />
<glyph unicode="2" d="M174 1124q0 221 125 340q109 106 276 107q182 0 320 -113q147 -121 147 -303q0 -176 -143 -364l-489 -641h555q76 0 75 -74q0 -76 -75 -76h-658q-113 0 -112 74q0 35 30 76l557 757q84 115 84 230q0 123 -90 205.5t-201 82.5q-98 0 -161 -73q-72 -82 -72 -238 q0 -59 -82 -59q-86 -1 -86 69z" />
<glyph unicode="3" d="M162 295q0 39 23.5 66.5t54.5 27.5q39 0 65 -43q68 -113 94 -137q78 -78 201 -78q135 0 213 88q70 80 70 197q0 115 -68 198q-74 90 -201 99q-94 4 -94 75q0 74 93.5 74t154.5 92.5t61 208.5q0 106 -57 176q-66 78 -190 78q-176 0 -189 -233q-4 -88 -84 -88 q-88 0 -88 102q0 172 121 275q115 96 289 96q172 0 274 -123q92 -113 92 -279q0 -229 -166 -372q223 -104 224 -355q0 -182 -123 -319q-133 -147 -336 -148q-299 0 -422 267q-12 26 -12 55z" />
<glyph unicode="4" d="M96 479q0 41 27 82l534 862q59 96 158 97q55 0 93 -39t38 -109v-829h98q76 0 76 -82q0 -72 -67 -72l-107 -2v-291q0 -96 -76 -96q-74 0 -73 96v291h-592q-109 0 -109 92zM289 543h508v829z" />
<glyph unicode="5" d="M170 233q0 82 53 82q33 0 66 -47q39 -53 119 -92q94 -47 196 -47q145 0 227 102q74 92 74 230q0 141 -78 246q-88 113 -229 112q-47 0 -109.5 -30.5t-99.5 -30.5q-78 0 -78 76q0 12 2 28l103 572q14 82 116 82h439q35 0 55.5 -27t20.5 -62q0 -78 -76 -77h-422l-68 -422 q90 43 176 43q252 0 365 -258q104 -246 -2 -482q-119 -258 -426 -258q-260 0 -397 183q-27 32 -27 77z" />
<glyph unicode="6" d="M160 524q0 61 8 121q72 463 496 846q35 31 69 31q35 0 60.5 -26t25.5 -56q0 -29 -22 -49q-260 -242 -359 -447q125 43 219 43q188 0 299 -151q102 -139 103 -340q0 -211 -113 -359q-125 -164 -338 -164q-219 0 -342 174q-106 154 -106 377zM330 489q0 -147 71 -251 q78 -115 207 -115q125 0 203 117q68 106 68 256q0 143 -66 239q-74 111 -205 111q-133 0 -209 -113q-69 -99 -69 -244z" />
<glyph unicode="7" d="M145 1436q0 82 95 82h725q109 0 108 -60q0 -31 -26 -90l-543 -1284q-37 -84 -98 -84q-68 0 -68 80q0 33 14 67l512 1205h-624q-95 0 -95 84z" />
<glyph unicode="8" d="M152 444q0 129 63 234q68 115 193 168q-184 115 -185 338q0 156 96 264q106 121 277 121q182 0 295 -119q104 -111 104 -266q0 -213 -182 -338q125 -61 191 -176q61 -104 61 -232q0 -184 -115 -319q-125 -145 -321 -146q-221 0 -355 148q-122 135 -122 323zM324 449 q0 -125 71 -211q80 -96 217 -97q129 0 207 95q68 86 68 208q0 129 -72 218q-82 100 -219 100q-127 0 -203 -98q-69 -88 -69 -215zM373 1174q0 -104 61 -181q68 -82 178 -82q104 0 164 78q53 70 53 172q0 104 -53 176q-61 82 -164 82q-115 0 -182 -78q-57 -67 -57 -167z" />
<glyph unicode="9" d="M59 1040q0 215 119 363q131 166 361 166q213 0 331 -178q102 -154 103 -379q0 -260 -135 -543q-152 -319 -408 -485q-14 -10 -35 -11q-33 0 -62.5 23.5t-29.5 54.5t31 58q287 250 354 469q-102 -49 -199 -50q-201 0 -319 160q-111 145 -111 352zM246 1032q0 -145 67 -244 q76 -111 209 -110q139 0 217 110q70 96 70 244q0 154 -70 264q-78 123 -200 123q-137 0 -220 -123q-73 -108 -73 -264z" />
<glyph unicode=":" horiz-adv-x="403" d="M0 102q0 43 27.5 74t74.5 31q49 0 82 -35q27 -33 27 -76q0 -96 -100 -96q-111 0 -111 102zM0 834q0 98 102 98q51 0 80 -34t29 -77q0 -100 -100 -100q-51 0 -82 37q-29 31 -29 76z" />
<glyph unicode=";" horiz-adv-x="432" d="M-72 -209q0 10 2 19l123 311q29 74 103 74q78 0 77 -58q0 -10 -4 -20l-143 -348q-16 -37 -70 -37q-33 0 -60F36CB8AC5" />
<glyph unicode="&#x3c;" d="M39 571q0 59 72 93l931 434q59 29 101 10q35 -14 35 -55q0 -55 -70 -88l-844 -406l828 -401q76 -37 75 -97q0 -59 -67 -59q-35 0 -80 23l-909 452q-72 35 -72 94z" />
<glyph unicode="=" d="M53 377q0 76 74 76h963q76 0 75 -74q0 -76 -75 -76h-963q-74 0 -74 74zM53 805q0 72 74 72h963q76 0 75 -78q0 -72 -75 -72h-963q-74 0 -74 78z" />
<glyph unicode="&#x3e;" d="M39 1055q0 63 72 63q25 0 49 -10l927 -455q92 -45 93 -96q0 -57 -109 -108l-911 -437q-23 -10 -45 -10q-74 0 -74 72q0 57 65 88l828 385l-828 422q-67 35 -67 86z" />
<glyph unicode="?" horiz-adv-x="956" d="M0 1305q0 14 6 32q41 115 146 179q96 59 219 59q158 0 270 -94q123 -104 123 -279q0 -346 -352 -422v-291q0 -88 -84 -88q-35 0 -60.5 24t-25.5 64v342q0 57 92 89q135 47 172 75q92 70 92 224q0 80 -82 145.5t-182 65.5q-150 0 -217 -158q-14 -35 -51 -35q-66 0 -66 68z M217 109q0 98 105 98q51 0 79.5 -32t28.5 -77q0 -98 -104 -98q-49 0 -79 33t-30 76z" />
<glyph unicode="@" horiz-adv-x="1736" d="M0 764q0 315 190 530q211 242 576 242q326 0 541 -156q238 -170 237 -475q0 -244 -166 -436q-145 -170 -315 -197q-174 -27 -199 134q-86 -135 -258 -136q-125 0 -211 82q-96 92 -96 254q0 225 151.5 415.5t331.5 190.5q158 0 271 -168q6 55 35.5 86t62.5 31q57 0 57 -65 q0 -53 -98 -305q-96 -240 -86 -318q10 -68 63 -67q92 0 213 157q127 166 127 332q0 246 -217 393q-190 131 -446 131q-301 0 -473 -205q-156 -182 -156 -450q0 -272 158 -465q178 -211 473 -211q150 0 297 47q168 55 256 154q47 51 88 49q35 0 35 -39q0 -37 -37 -78 q-223 -250 -639 -250q-358 0 -573 248q-193 226 -193 545zM469 614q0 -188 147 -188q123 0 236 127q123 137 123 324q0 170 -154 170q-125 0 -231 -115q-121 -130 -121 -318z" />
<glyph unicode="A" horiz-adv-x="1327" d="M0 70q0 18 8 43l463 1310q35 92 119 93q84 0 119 -93l479 -1310q8 -25 8 -45q0 -70 -70 -70q-55 0 -73 51l-95 256h-725l-75 -227q-27 -80 -92 -80q-66 0 -66 72zM285 473h606l-299 834z" />
<glyph unicode="B" horiz-adv-x="1120" d="M0 100v1317q0 98 84 99h252q250 0 383 -113q115 -98 115 -248q0 -111 -63.5 -204t-164.5 -124q166 -29 260 -147q86 -109 86 -254q0 -172 -112 -293q-125 -133 -332 -133h-389q-68 0 -90 16q-29 18 -29 84zM152 150h305q156 0 243 83q82 78 82 191q0 127 -100 219 q-111 102 -297 102h-233v-595zM152 879h184q164 0 256 75q82 68 82 170q0 96 -76 166q-82 76 -213 76h-233v-487z" />
<glyph unicode="C" horiz-adv-x="1232" d="M0 770q0 346 205 571q188 207 461 228q27 2 53 2q243 0 428 -172q39 -35 39 -74q0 -29 -20.5 -50.5t-49.5 -21.5q-31 0 -55 25q-133 133 -324 133q-219 0 -377 -164q-174 -182 -174 -479q0 -293 172 -473q156 -162 373 -162q195 0 330 135q25 25 55 25q29 0 49.5 -20.5 t20.5 -51.5q0 -39 -39 -74q-186 -172 -438 -172q-283 0 -488 207q-221 226 -221 588z" />
<glyph unicode="D" horiz-adv-x="1288" d="M0 84v1333q0 98 119 99h405q283 0 455 -244q156 -221 156 -533q0 -303 -150 -510q-168 -229 -461 -229h-438q-49 0 -67.5 15.5t-18.5 68.5zM152 150h321q231 0 369 190q123 174 123 420q0 248 -125 418q-141 188 -383 188h-305v-1216z" />
<glyph unicode="E" horiz-adv-x="806" d="M0 92v1331q0 92 84 93h520q76 0 76 -76q0 -74 -76 -74h-454v-504h438q76 0 76 -78q0 -72 -76 -71h-438v-560330473AE7" />
<glyph unicode="F" horiz-adv-x="780" d="M0 61v1356q0 98 84 99h522q76 0 76 -76q0 -74 -76 -74h-454v-520h405q76 0 76 -78q0 -74 -76 -74h-405v-633q0 -61 -78 -61q-74 0 -74 61z" />
<glyph unicode="G" horiz-adv-x="1409" d="M0 743q0 369 217 605q203 221 490 221q250 0 450 -183q35 -33 35 -65q0 -31 -23.5 -50.5t-54.5 -19.5q-35 0 -61 25q-143 131 -328 131q-217 0 -371 -170q-168 -186 -168 -487q0 -285 162 -459q145 -160 348 -160q188 0 310 143q129 151 129 411v32h-246q-90 0 -90 74 q0 76 96 75h272q88 0 115 -53q18 -35 18 -129q0 -336 -194 -532q-174 -176 -432 -177q-270 0 -461 193q-213 215 -213 575z" />
<glyph unicode="H" horiz-adv-x="1325" d="M0 74v1370q0 76 74 76q76 0 76 -76v-598h845v598q0 76 74 76q78 0 78 -76v-1370q0 -76 -78 -76q-74 0 -74 76v620h-845v-620q0 -76 -74 -76q-76 0 -76 76z" />
<glyph unicode="I" horiz-adv-x="329" d="M0 76v1368q0 76 74 76q76 0 76 -76v-1368q0 -76 -76 -76q-74 0 -74 76z" />
<glyph unicode="J" horiz-adv-x="821" d="M0 133q0 78 70 78q18 0 85.5 -47t149.5 -47q88 0 137.5 50t49.5 138v1139q0 76 75 76q78 0 78 -76v-1139q0 -160 -104 -252q-96 -82 -238 -82q-164 0 -278 105q-25 22 -25 57z" />
<glyph unicode="K" horiz-adv-x="1153" d="M0 66v1390q0 63 74 64q78 0 78 -64v-577l714 618q23 18 47 19q33 0 58.5 -26t25.5 -56q0 -29 -20 -48l-692 -591l727 -662q27 -25 26 -55q0 -31 -22.5 -53.5t-54.5 -22.5q-37 0 -70 31l-739 696v-663q0 -68 -74 -68q-78 0 -78 68z" />
<glyph unicode="L" horiz-adv-x="712" d="M0 117v1327q0 76 74 76q76 0 76 -76v-1294h391q76 0 75 -74q0 -76 -75 -76h-441q-100 0 -100 117z" />
<glyph unicode="M" horiz-adv-x="1798" d="M2 96l203 1274q23 154 131 154q98 0 139 -138l336 -1132l354 1132q41 133 142 134q104 0 127 -150l211 -1278q1 -9 1 -18q0 -29 -16 -47q-20 -25 -55 -25q-74 0 -86 82l-189 1251l-405 -1247q-31 -88 -84 -88q-55 0 -84 88l-389 1247l-184 -1249q-12 -84 -88 -84 q-66 0 -66 67q0 12 2 27z" />
<glyph unicode="N" horiz-adv-x="1306" d="M0 78v1352q0 90 74 90q57 0 106 -74l799 -1176v1170q0 78 74 78q76 0 75 -78v-1350q0 -92 -73 -92q-59 0 -103 63l-802 1172v-1155q0 -80 -74 -80q-76 0 -76 80z" />
<glyph unicode="O" horiz-adv-x="1468" d="M0 776q0 322 162 545q180 246 489 246q313 0 498 -250q168 -225 168 -549q0 -322 -166 -545q-184 -248 -500 -248q-305 0 -487 252q-164 225 -164 549zM172 782q0 -264 121 -450q135 -205 358 -205q236 0 371 199q123 178 123 438q0 264 -125 448q-137 205 -369 205 q-229 0 -360 -198q-119 -179 -119 -437z" />
<glyph unicode="P" horiz-adv-x="1036" d="M0 76v1360q0 82 84 82h373q229 0 362 -146q119 -129 119 -319q0 -184 -113 -316q-125 -141 -336 -141h-339v-520q0 -76 -74 -76q-76 0 -76 76zM150 745h290q162 0 258 97q88 88 88 213q0 127 -94 215q-104 98 -284 98h-258v-623z" />
<glyph unicode="Q" horiz-adv-x="1490" d="M0 788q0 319 160 537q180 242 493 242q317 0 496 -248q156 -219 156 -547q0 -276 -111 -498q25 -29 131 -143q16 -18 16 -47q0 -31 -21.5 -57.5t-47.5 -26.5q-23 0 -43 20l-135 138q-141 -184 -457 -185q-295 0 -475 256q-162 231 -162 559zM164 778q0 -264 123 -450 q137 -205 366 -205q215 0 336 151q-16 16 -110 109q-29 27 -29 59q0 35 25.5 59.5t56.5 24.5q29 0 49 -22l96 -96q66 172 66 378q0 264 -111 433q-129 199 -379 198q-233 0 -368 -200q-121 -179 -121 -439z" />
<glyph unicode="R" horiz-adv-x="1040" d="M0 92v1344q0 82 117 82h307q229 0 358 -121q113 -106 113 -269q0 -160 -107 -276q-115 -125 -299 -125h-137l510 -590q27 -31 27 -67q0 -74 -68 -74q-39 0 -76 43l-595 688v-635q0 -94 -74 -94q-76 0 -76 94zM150 877h290q143 0 232 79q78 70 78 172q0 98 -76 166 q-86 74 -234 74h-290v-491z" />
<glyph unicode="S" horiz-adv-x="1060" d="M0 168q0 70 70 70q35 0 71 -25q139 -86 297 -86q133 0 215 70q92 80 92 233q0 178 -186 277l-344 155q-186 109 -186 312q0 190 123 296q111 96 280 97q180 0 326 -107q57 -43 57 -94q0 -61 -63 -61q-37 0 -78 30q-102 76 -242 76q-106 0 -174 -51q-76 -59 -76 -170 q0 -117 189 -209q319 -156 350 -178q188 -137 188 -363q0 -223 -153 -350q-139 -117 -348 -117q-195 0 -353 105q-55 37 -55 90z" />
<glyph unicode="T" horiz-adv-x="1026" d="M0 1442q0 76 82 76h756q78 0 77 -76q0 -74 -77 -74h-303v-1282q0 -86 -74 -86q-78 0 -78 86v1282h-301q-82 0 -82 74z" />
<glyph unicode="U" horiz-adv-x="1335" d="M0 502v928q0 88 84 88q82 0 82 -88v-912q0 -236 215 -340q106 -52 211 -52q94 0 188 42q215 98 215 350v912q0 88 84 88t84 -88v-928q0 -246 -184 -393q-166 -133 -406 -134q-233 0 -395 131q-178 146 -178 396z" />
<glyph unicode="V" horiz-adv-x="1290" d="M0 1448q0 74 78 74q57 0 80 -62l422 -1206l417 1206q20 59 72 60q33 0 61.5 -26t28.5 -58q0 -12 -6 -25l-457 -1284q-45 -129 -116 -129q-63 0 -105 111l-469 1302q-6 19 -6 37z" />
<glyph unicode="W" horiz-adv-x="1792" d="M2 1425q-2 11 -2 21q0 29 18 48q25 26 60 26q68 0 80 -76l211 -1256l348 1254q23 78 108 78q86 0 107 -78l332 -1254l206 1252q14 84 89 84q37 0 61 -28q18 -21 18 -50q0 -10 -2 -21l-237 -1321q-18 -106 -127 -106q-88 0 -109 74l-338 1231l-336 -1199 q-29 -104 -135 -104q-104 0 -118 88z" />
<glyph unicode="X" horiz-adv-x="1294" d="M0 57q0 33 25 70l454 707l-401 565q-18 27 -19 51q0 31 21.5 50.5t50.5 19.5q41 0 68 -37l374 -514l330 512q25 37 64 37q29 0 51 -21.5t22 -52.5q0 -25 -16 -47l-369 -545l480 -721q29 -43 28 -76q0 -59 -59 -59q-45 0 -78 47l-461 670l-428 -668q-31 -49 -78 -49 q-59 0 -59 61z" />
<glyph unicode="Y" horiz-adv-x="1101" d="M0 1448q0 72 68 72q39 0 63 -43l358 -598l351 594q29 47 73 47q68 0 68 -66q0 -23 -12 -43l-412 -698v-625q0 -88 -76 -88q-78 0 -78 88v625l-389 682q-14 26 -14 53z" />
<glyph unicode="Z" horiz-adv-x="1167" d="M0 86q0 47 23 80l790 1202h-707q-78 0 -77 74q0 76 77 76h824q104 0 104 -68q0 -41 -39 -98l-790 -1202h774q80 0 80 -72q0 -78 -80 -78h-907q-72 0 -72 86z" />
<glyph unicode="[" horiz-adv-x="491" d="M0 -29v1481q0 100 84 100h149q66 0 66 -73q0 -61 -63 -62l-86 2v-1415h86q63 0 63 -63q0 -70 -66 -70h-149q-84 0 -84 100z" />
<glyph unicode="\" horiz-adv-x="909" d="M0 1483q0 63 63 63q61 0 93 -78l557 -1396q4 -10 4 -23q0 -27 -21.5 -49.5t-50.5 -22.5q-53 0 -84 78l-555 1397q-6 17 -6 31z" />
<glyph unicode="]" horiz-adv-x="491" d="M0 -53q0 57 53 57h97v1399q-25 0 -87 -2q-63 0 -63 65q0 70 63 70h154q82 0 82 -100v-1465q0 -100 -82 -100h-154q-63 0 -63 76z" />
<glyph unicode="^" d="M59 614q0 29 19 64l457 807q29 51 83 51q55 0 84 -51l441 -807q16 -31 16 -62q0 -72 -65 -71q-61 0 -107 84l-369 690l-389 -690q-45 -82 -108 -82q-62 -1 -62 67z" />
<glyph unicode="_" horiz-adv-x="1030" d="M-78 -197q0 68 78 68h1022q80 0 80 -70q0 -66 -80 -65h-1022q-78 -1 -78 67z" />
<glyph unicode="`" horiz-adv-x="497" d="M0 1143q0 10 6 22l137 320q20 45 76 45q33 0 59.5 -17.5t26.5 -44.5q0 -10 -4 -20l-139 -315q-20 -49 -82 -50q-80 1 -80 60z" />
<glyph unicode="a" horiz-adv-x="1122" d="M-4 545q0 250 121 430q133 199 352 199q102 0 197.5 -53.5t138.5 -133.5q0 29 -2 96q0 98 78 99q76 0 75 -95v-1044q0 -61 -73 -61q-74 0 -76 58t-2 87q-72 -90 -162 -123q-74 -29 -203 -29q-213 0 -336 177q-108 157 -108 393zM162 561q0 -186 76 -315q86 -143 231 -144 q158 0 254 148q86 133 86 321q0 182 -84 308q-94 139 -256 139q-145 0 -231 -141q-76 -130 -76 -316z" />
<glyph unicode="b" horiz-adv-x="1118" d="M0 61v1375q0 80 76 80t76 -80v-457q129 195 337 195q223 0 357 -191q121 -170 121 -416q0 -242 -119 -407q-131 -186 -359 -187q-217 0 -337 164v-78q0 -39 -24 -61.5t-54 -22.5q-74 0 -74 86zM156 569q0 -188 82 -317q94 -145 251 -146q145 0 230 142q74 127 74 313 q0 190 -76 326q-86 150 -228 149q-158 0 -249 -147q-84 -132 -84 -320z" />
<glyph unicode="c" horiz-adv-x="894" d="M0 569q0 244 131 416q143 188 387 189q53 0 123 -19q82 -23 125 -59q35 -29 35 -70q0 -33 -24.5 -58.5t-61.5 -25.5q-18 0 -81 36t-126 36q-160 0 -256 -144q-88 -129 -88 -311q0 -174 82 -291q92 -131 254 -131q53 0 129 25.5t90 25.5q76 0 76 -71q0 -45 -39 -78 q-80 -66 -234 -66q-248 0 -393 187q-129 165 -129 409z" />
<glyph unicode="d" horiz-adv-x="1130" d="M0 559q0 248 121 422q133 193 354 193q184 0 334 -191v455q0 80 78 80q74 0 74 -80v-1399q0 -70 -74 -70q-78 0 -78 72v96q-106 -166 -334 -166q-227 0 -358 183q-117 165 -117 405zM164 561q0 -180 78 -303q86 -137 233 -137q162 0 258 139q84 127 84 307q0 184 -86 312 q-94 139 -256 139q-145 0 -231 -144q-80 -129 -80 -313z" />
<glyph unicode="e" horiz-adv-x="1099" d="M0 573q0 244 127 414q137 188 369 189q219 0 346 -138.5t127 -373.5q0 -166 -54 -166h-741q0 -145 107.5 -268.5t246.5 -123.5q84 0 164 46q39 20 115 79q55 45 80 45q31 0 53.5 -24.5t22.5 -52.5q0 -25 -15 -41q-145 -184 -420 -185q-252 0 -399 189q-129 165 -129 411z M174 653h641q0 180 -98 285q-88 94 -217 94t-221 -94q-101 -107 -105 -285z" />
<glyph unicode="f" horiz-adv-x="608" d="M0 1055q0 80 84 80h96v196q0 188 166 189h133q90 0 90 -72q0 -68 -90 -68q-96 0 -114 -8q-35 -16 -35 -94v-143q33 0 131 2q84 0 84 -78q0 -80 -88 -80l-127 2v-907q0 -76 -76 -76q-74 0 -74 76v907h-96q-84 0 -84 74z" />
<glyph unicode="g" horiz-adv-x="1136" d="M0 578q0 242 125 409q139 186 375 187q94 0 182 -46.5t135 -126.5v111q0 68 74 68q78 0 78 -72v-1081q0 -223 -129 -357.5t-353 -134.5q-254 0 -411 133q-37 33 -37 80q0 72 63 72q20 0 45 -13q70 -37 138 -73q106 -47 215 -47q317 0 317 456q-39 -80 -135 -127 q-84 -41 -182 -41q-236 0 -375 189q-125 170 -125 414zM176 582q0 -190 82 -324q90 -150 242 -149q152 0 241 147q82 131 82 319t-80 318q-90 143 -243 143q-154 0 -244 -141q-80 -127 -80 -313z" />
<glyph unicode="h" horiz-adv-x="1015" d="M0 74v1364q0 80 74 80q76 0 76 -80v-422q117 156 313 155q158 0 270 -102q123 -111 123 -287v-708q0 -76 -76 -76q-74 0 -73 76v643q0 150 -86 235q-78 78 -191 78t-192 -78q-88 -88 -88 -235v-643q0 -76 -76 -76q-74 0 -74 76z" />
<glyph unicode="i" horiz-adv-x="368" d="M0 1421q0 98 104 99q49 0 79 -34t30 -77q0 -98 -111 -98q-47 0 -74.5 33.5t-27.5 76.5zM31 76v1022q0 76 73 76q78 0 78 -76v-1022q0 -78 -76 -78q-75 0 -75 78z" />
<glyph unicode="j" horiz-adv-x="368" d="M0 1421q0 98 104 99q49 0 79 -34t30 -77q0 -98 -104 -98q-49 0 -79 32.5t-30 77.5zM31 -399v1497q0 78 75 78q76 0 76 -78v-1497q0 -76 -78 -76q-73 0 -73 76z" />
<glyph unicode="k" horiz-adv-x="942" d="M0 74v1366q0 76 76 76q74 0 74 -76v-695l487 388q23 18 49 18q31 0 55.5 -24.5t24.5 -57.5q0 -41 -43 -74l-457 -350l508 -487q49 -47 49 -95q0 -70 -71 -69q-49 0 -97 47l-505 483v-450q0 -74 -76 -74q-74 0 -74 74z" />
<glyph unicode="l" horiz-adv-x="321" d="M0 76v1366q0 78 74 78q78 0 78 -78v-1366q0 -78 -76 -78t-76 78z" />
<glyph unicode="m" horiz-adv-x="1660" d="M0 78v1007q0 90 76 91q78 0 76 -91l-2 -73q117 162 299 162q203 0 309 -195q129 195 360 195q156 0 266 -97q117 -102 117 -266v-733q0 -74 -76 -74q-78 0 -77 74v667q0 129 -74 203q-66 68 -164 68q-113 0 -195 -82q-92 -90 -92 -240v-616q0 -76 -73 -76q-76 0 -76 76 v667q0 127 -74 201q-68 66 -166 66q-113 0 -194 -80q-90 -90 -90 -238v-616q0 -76 -74 -76q-76 0 -76 76z" />
<glyph unicode="n" horiz-adv-x="1017" d="M0 74v1030q0 70 74 70q76 0 78 -74q1 -41 1 -67t-1 -38q111 178 327 179q154 0 262 -101q119 -109 119 -295v-704q0 -76 -78 -76q-76 0 -75 76v688q0 119 -76 190q-72 63 -174 64q-121 0 -207 -84q-98 -94 -98 -254v-604q0 -76 -78 -76q-74 0 -74 76z" />
<glyph unicode="o" horiz-adv-x="1146" d="M0 575q0 244 123 412q137 186 373 187q231 0 370 -193q125 -172 125 -420q0 -240 -123 -403q-135 -182 -372 -183q-236 0 -373 189q-123 167 -123 411zM172 590q0 -190 82 -330q92 -152 242 -151q158 0 245 137q80 121 80 303q0 193 -86 334q-92 154 -239 153 q-158 0 -246 -139q-78 -123 -78 -307z" />
<glyph unicode="p" horiz-adv-x="1118" d="M0 -397v1497q0 76 78 76q76 0 76 -84l-2 -113q154 195 321 195q233 0 373 -191q125 -174 125 -420q0 -242 -123 -407q-137 -184 -375 -185q-176 0 -321 166v-534q0 -76 -78 -76q-74 0 -74 76zM152 578q0 -190 81 -324q90 -150 240 -150t238 148q80 131 80 321 q0 188 -78 318q-88 145 -240 145q-154 0 -242 -143q-79 -127 -79 -315z" />
<glyph unicode="q" horiz-adv-x="1128" d="M0 588q0 242 121 403q137 182 373 183q199 0 315 -195q0 25 2 102q0 96 76 97q76 0 76 -88v-1487q0 -76 -78 -76q-76 0 -76 76v540q-111 -168 -315 -168q-229 0 -369 193q-125 174 -125 420zM172 586q0 -193 82 -328q90 -150 240 -149q152 0 239 145q80 129 80 315 q0 188 -80 322q-90 145 -239 145q-154 0 -242 -141q-80 -125 -80 -309z" />
<glyph unicode="r" horiz-adv-x="636" d="M0 78v1012q0 86 76 86q74 0 74 -82v-146q141 225 266 226q45 0 76.5 -31t31.5 -78q0 -51 -98 -88q-131 -49 -178 -92q-98 -90 -98 -271v-536q0 -76 -74 -76q-76 0 -76 76z" />
<glyph unicode="s" horiz-adv-x="970" d="M0 203q0 37 21.5 66.5t50.5 29.5t53 -33q39 -53 141.5 -97t198.5 -44q197 0 197 182q0 94 -162 172q-154 70 -305 139q-164 96 -164 238q0 160 112 244q98 74 256 74q221 0 367 -121q33 -29 33 -72q0 -80 -66 -80q-23 0 -47 14q-164 104 -330 105q-158 0 -157 -146 q0 -66 166 -141q260 -121 307 -151q166 -111 166 -254q0 -168 -127 -265q-117 -86 -289 -86q-260 0 -399 162q-23 27 -23 64z" />
<glyph unicode="t" horiz-adv-x="645" d="M0 1065q0 68 66 68h4h106v309q0 76 76 76t76 -76v-309h100q80 0 80 -70t-76 -70l-104 2v-921q0 -76 -78 -76q-74 0 -74 76v921h-102q-74 0 -74 70z" />
<glyph unicode="u" horiz-adv-x="1021" d="M0 350v711q0 76 74 76q76 0 76 -76v-662q0 -137 86 -215q78 -72 188 -71q115 0 194 71q88 82 89 215v662q0 76 73 76q76 0 76 -76v-711q0 -233 -221 -330q-105 -46 -209 -45l-205 43q-221 96 -221 332z" />
<glyph unicode="v" horiz-adv-x="980" d="M0 1067q0 68 63 68q66 0 93 -86l260 -795l272 797q29 88 90 88q66 0 66 -72q0 -16 -6 -33l-334 -973q-23 -63 -90 -63q-59 0 -82 63l-326 971q-6 19 -6 35z" />
<glyph unicode="w" horiz-adv-x="1718" d="M0 1055q0 82 76 82q63 0 84 -64l254 -819l288 809q25 72 84 72t82 -72l273 -809l278 821q20 63 86 64q76 0 76 -78q0 -27 -12 -57l-342 -926q-29 -76 -88 -76q-61 0 -88 82l-265 827l-266 -833q-27 -78 -98 -78q-74 0 -103 84l-309 917q-10 29 -10 54z" />
<glyph unicode="x" horiz-adv-x="1067" d="M0 68q0 41 35 88l336 456l-291 389q-23 31 -23 60q0 33 23.5 53.5t54.5 20.5q49 0 80 -45l250 -359l254 361q31 45 78 45q33 0 56.5 -20.5t23.5 -51.5t-25 -61l-301 -379l340 -461q39 -53 39 -96q0 -70 -66 -70q-55 0 -102 65l-307 426l-308 -428q-39 -57 -88 -57 q-59 1 -59 64z" />
<glyph unicode="y" horiz-adv-x="1007" d="M0 1059q0 76 72 76q66 0 88 -72l262 -809l289 819q23 63 86 64q74 0 73 -74q0 -20 -10 -45l-506 -1415q-25 -70 -88 -70q-70 0 -69 74q0 20 8 45l149 403l-344 955q-10 26 -10 49z" />
<glyph unicode="z" horiz-adv-x="972" d="M0 74q0 39 37 92l553 815h-488q-76 0 -75 78q0 76 75 76h625q92 0 92 -64q0 -45 -43 -106l-573 -815h573q76 0 76 -74q0 -76 -76 -76h-657q-119 0 -119 74z" />
<glyph unicode="{" horiz-adv-x="739" d="M0 719q0 35 34 49t68 27q111 45 111 319q0 72 -8 163l-8 91q0 121 90 152q43 16 194 16q27 0 46.5 -20.5t100E177AA0B" />
<glyph unicode="|" horiz-adv-x="342" d="M0 39v1546q0 88 76 88q74 0 74 -88v-1546q0 -78 -76 -78q-74 0 -74 78z" />
<glyph unicode="}" horiz-adv-x="739" d="M0 -53q0 -59 68 -60q158 0 204 23q78 39 78 178q0 23 -4 107t-4 137q0 270 104 319q35 8 68 17.5t33 50.5q0 35 -33 49t-68 27q-113 45 -112 319q0 72 8 163l8 91q0 121 -90 152q-41 16 -192 16q-27 0 -47.5 -20.5t-20.5 -42.5q0 -53 88 -54q53 0 76 -16q37 -25 37 -100 q0 -33 -2 -100.5t-2 -102.5q0 -291 170 -387q-170 -51 -170 -385q0 -37 2 -95.5t2 -76.5q0 -104 -45 -136q-23 -14 -89.5 -17t-66.5 -56z" />
<glyph unicode="~" horiz-adv-x="1193" d="M0 465q0 98 92 170q86 70 187 70q106 0 248.5 -85t189.5 -85q66 0 113 83.5t100 83.5q72 0 71 -90q0 -102 -104 -170q-92 -61 -197 -61q-94 0 -222 81t-187 81q-63 0 -124 -81t-99 -81q-68 0 -68 84z" />
<glyph unicode="&#xa3;" horiz-adv-x="1323" d="M0 784q0 78 76 78h184q-111 158 -110 316q0 156 111.5 257t320.5 101q369 0 501 -336q8 -20 9 -39q0 -35 -22.5 -59.5t-51.5 -24.5q-51 0 -80 64q-57 119 -96 157q-88 86 -260 86q-252 0 -252 -219q0 -143 96 -303h274q74 0 74 -76q0 -74 -74 -73h-235q33 -94 33 -178 q0 -197 -205 -379h762q76 0 75 -78q0 -74 -75 -74h-895q-84 0 -84 72q0 41 67 112q96 102 125 148q66 102 66 221q0 74 -25 156h-233q-76 -1 -76 71z" />
<glyph unicode="&#xa4;" horiz-adv-x="1579" d="M0 600q0 37 29 66l290 288q-27 84 -26 174q0 102 33 197l-297 297q-29 29 -29 64q0 31 21.5 53t50.5 22q35 0 65 -30l266 -265q109 133 283 133q180 0 291 -139l270 271q33 31 66 30q31 0 52 -22.5t21 -52.5q0 -35 -28 -64l-299 -299q25 -20 24 -131q0 -100 -18 -236 l293 -290q29 -29 28 -66q0 -31 -21.5 -53.5t-51.5 -22.5q-33 0 -66 31l-252 254q-111 -154 -303 -154q-190 0 -301 152l-254 -252q-31 -31 -65 -31q-29 0 -50.5 22.5t-21.5 53.5zM430 1141q0 -152 68 -258q72 -119 192 -119q125 0 197 106q63 94 63 238q0 152 -67 260 q-74 121 -193 121q-125 0 -196 -109q-64 -96 -64 -239z" />
<glyph unicode="&#xa5;" horiz-adv-x="1200" d="M0 1473q0 31 20.5 51t47.5 20q39 0 63 -43l371 -622l370 622q25 43 70 43q66 0 66 -63q0 -29 -19 -62l-256 -432h166q88 0 88 -78q0 -76 -88 -75h-258l-72 -121v-84h267q90 0 90 -78q0 -76 -90 -76h-267v-403q0 -88 -75 -88q-78 0 -78 88v403h-266q-88 0 -89 74 q0 33 24 56.5t65 23.5h266v84l-70 121h-244q-90 0 -90 73q0 33 24.5 56.5t65.5 23.5h156l-244 432q-14 27 -14 54z" />
<glyph unicode="&#xa6;" horiz-adv-x="342" d="M0 74v663q0 43 25.5 68.5t58.5 25.5q66 0 66 -75v-682q0 -76 -76 -76q-74 0 -74 76zM0 983v616q0 43 25.5 69t58.5 26q66 0 66 -78v-633q0 -76 -76 -76q-74 0 -74 76z" />
<glyph unicode="&#xa7;" horiz-adv-x="1251" d="M0 592q0 121 76 218t192 134q-152 94 -155 256q-6 152 133 254q129 96 305 96q162 0 276 -86q131 -98 160 -280q6 -33 -16.5 -54.5t-55.5 -21.5q-70 0 -90 76q-27 100 -110 153q-74 47 -172 47q-104 0 -184 -50t-80 -126q0 -100 202 -202q362 -186 375 -195 q203 -135 203 -313q0 -227 -234 -377q131 -117 131 -258q0 -156 -139 -248q-125 -82 -305 -82q-184 0 -309 84q-141 92 -142 250q0 98 72 98q70 0 88 -110q12 -78 105 -125q84 -45 194 -45q109 0 185.5 48t76.5 136q0 96 -202 199q-340 172 -377 196q-203 140 -203 328z M160 590q0 -119 125 -184l407 -218q88 55 142.5 136.5t54.5 162.5q0 131 -146 207l-321 168q-113 -20 -187.5 -100t-74.5 -172z" />
<glyph unicode="&#xa8;" horiz-adv-x="778" d="M0 1362q0 43 26.5 74.5t73.5 31.5q55 0 88 -32q27 -31 27 -74t-28.5 -76t-77.5 -33q-51 0 -82 35q-27 29 -0F579C6A43" />
<glyph unicode="&#xa9;" horiz-adv-x="1744" d="M0 745q0 315 193 533q215 240 581 240q365 0 582 -244q197 -219 196 -537q0 -311 -194 -526q-215 -240 -584 -240q-365 0 -579 242q-195 219 -195 532zM158 750q0 -262 153 -443q172 -203 463 -203q293 0 465 201q156 178 156 438t-156 441q-172 201 -465 200 q-293 0 -463 -198q-153 -178 -153 -436zM311 750q0 193 115 321q127 145 348 146q276 0 387 -273q4 -8 4 -16q0 -55 -73 -56q-55 0 -78 52q-29 72 -95.5 115.5t-144.5 43.5q-145 0 -229 -104q-74 -92 -74 -231q0 -143 78 -246q86 -115 225 -115q117 0 195 62q49 37 94 112 q39 61 55 62q18 0 33.5 -30t15.5 -58q0 -16 -6 -27q-57 -106 -165.5 -180t-221.5 -74q-213 0 -344 156q-119 141 -119 340z" />
<glyph unicode="&#xaa;" horiz-adv-x="669" d="M0 1255q0 125 59 213q66 98 177 99q111 0 165 -103q0 76 0 66q4 43 37 43q39 0 39 -39v-530q0 -39 -39 -3902A45FBA9E" />
<glyph unicode="&#xab;" horiz-adv-x="872" d="M0 559q0 27 27 70l198 334q16 25 47 24q29 0 54.5 -22.5t25.5 -51.5q0 -18 -10 -34l-199 -318q29 -47 211 -360q4 -8 4 -15q0 -20 -27.5 -37.5t-56.5 -17.5q-35 0 -49 25l-198 333q-27 45 -27 70zM319 559q0 31 23 70l205 334q14 23 51 22q82 0 82 -63q0 -20 -14 -43 l-203 -318q33 -49 213 -360q4 -6 4 -15q0 -20 -27.5 -37.5t-56.5 -17.5q-35 0 -49 25l-205 333q-23 39 -23 70z" />
<glyph unicode="&#xac;" horiz-adv-x="1314" d="M0 565q0 31 23.5 55.5t64.5 24.5h948q86 0 86 -96v-303q0 -88 -73 -88q-33 0 -57.5 23.5t-24.5 64.5v243h-879q-88 0 -88 76z" />
<glyph unicode="&#xad;" horiz-adv-x="0" />
<glyph unicode="&#xae;" horiz-adv-x="1742" d="M0 766q0 313 193 528q215 242 579 242q365 0 582 -246q197 -219 196 -534q0 -313 -194 -529q-215 -240 -584 -239q-362 0 -577 243q-195 220 -195 535zM154 764q0 -260 155 -442q172 -201 463 -201q293 0 465 201q156 178 156 438t-156 442q-172 201 -465 201t-463 -201 q-155 -178 -155 -438zM473 338v778q0 59 27 74q18 10 55 10h301q129 0 211 -79t82 -183q0 -182 -227 -244q61 -90 120 -182q96 -150 97 -176q0 -61 -70 -62q-59 0 -94 64l-203 356h-166v-356q0 -63 -69 -64q-64 1 -64 64zM606 811h234q76 0 117.5 39t41.5 94t-43 97t-116 42 h-234v-272z" />
<glyph unicode="&#xaf;" horiz-adv-x="1372" d="M0 1708q0 68 78 68h1022q80 0 80 -70q0 -66 -80 -66h-1022q-78 0 -78 68z" />
<glyph unicode="&#xb0;" horiz-adv-x="593" d="M0 1448q0 80 52 136t151 56q96 0 149 -63q49 -55 49 -137t-49 -142q-57 -66 -149 -65q-92 0 -150 67q-53 607D73B4AD6" />
<glyph unicode="&#xb1;" d="M59 741q0 82 84 82h373v383q0 80 78 80q35 0 61.5 -21.5t26.5 -58.5v-383h373q47 0 74.5 -26.5t27.5 -61.5q0 -82 -102 -82h-373v-403q0 -35 -25.5 -56.5t-60.5 -21.5q-80 0 -80 78v403h-373q-84 0 -84 88zM63 76q0 33 25 56.5t66 23.5h915q88 0 88 -78q0 -76 -88 -76 h-915q-91 0 -91 74z" />
<glyph unicode="&#xb2;" horiz-adv-x="641" d="M0 1434q0 115 66 176q59 55 147 55t154.5 -53t66.5 -137q0 -86 -72 -181l-243 -319h276q53 0 54 -39q0 -37 -54 -37h-327q-61 0 -62 39q0 18 19 37l278 377q43 59 43 114t-39 91t-90 36q-129 0 -133 -166q-2 -57 -41 -57q-43 1 -43 64z" />
<glyph unicode="&#xb3;" horiz-adv-x="643" d="M0 1040q0 47 39 47q18 0 33 -22q33 -55 47 -68q39 -39 100 -39q68 0 107 46q35 39 34 98q0 57 -35.5 101t-99.5 46q-47 4 -47 39q0 37 46 37t74 41t28 92q0 127 -117 127q-88 0 -94 -117q-2 -43 -41 -43q-43 0 -43 52q0 86 58 135t147 49q76 0 125 -61.5t49 -143.5 q0 -100 -76 -164q117 -51 117 -176q0 -90 -66 -162.5t-168 -72.5q-150 0 -211 133q-6 12 -6 26z" />
<glyph unicode="&#xb5;" horiz-adv-x="1019" d="M0 -410v1471q0 76 76 76q74 0 74 -76v-674q0 -115 77 -182q70 -63 174 -64q123 0 209 82q96 94 97 250v588q0 76 75 76q74 0 74 -76v-973q0 -90 -74 -90t-73 80q-2 49 -2 78q-115 -174 -324 -174q-129 0 -233 77v-469q0 -76 -76 -75q-74 -1 -74 75z" />
<glyph unicode="&#xb6;" horiz-adv-x="1116" d="M0 1147q0 182 166 297q147 100 336 100h422v-135h-101v-1401h-137v1401h-154v-1401h-135v807h-4q-145 0 -264 90q-129 99 -129 242zM72 1038v228h47l67 -193l70 193h45v-228h-29v191l-71 -191h-29l-72 197v-197h-28zM326 1126q0 92 102 93q31 0 68 -9v-182q0 -59 -80 -59 q-33 0 -68 8l-2 24q45 -10 68 -10q51 0 51 41v45q-16 -35 -64 -35q-75 0 -75 84zM354 1124q0 -59 54 -59q59 0 59 59v68q-20 2 -37 2q-76 0 -76 -70z" />
<glyph unicode="&#xb9;" d="M389 1442q0 74 88 74h252q74 0 90 -37q10 -18 10 -105v-1296q0 -78 -73 -78q-76 0 -76 78v1288h-201q-90 0 -90 76z" />
<glyph unicode="&#xba;" horiz-adv-x="1146" d="M0 575q0 244 123 412q137 186 373 187q231 0 370 -193q125 -172 125 -420q0 -240 -123 -403q-135 -182 -372 -183q-236 0 -373 189q-123 167 -123 411zM172 590q0 -190 82 -330q92 -152 242 -151q158 0 245 137q80 121 80 303q0 193 -86 334q-92 154 -239 153 q-158 0 -246 -139q-78 -123 -78 -307z" />
<glyph unicode="&#xbb;" horiz-adv-x="876" d="M0 178q0 10 6 19l213 364q-27 45 -213 359q-6 8 -6 18q0 20 24.5 37.5t55.5 17.5q39 0 57 -30l199 -334q27 -43 26 -70q0 -25 -26 -70l-199 -333q-12 -23 -55 -23q-82 0 -82 45zM317 176q0 10 9 21l215 364l-205 318q-18 31 -19 55q0 59 72 59q45 0 64 -30l206 -334 q25 -39 25 -70t-25 -70l-206 -333q-12 -23 -60 -23q-76 0 -76 43z" />
<glyph unicode="&#xbd;" horiz-adv-x="1073" d="M0 1192q0 35 37 35h127q37 0 45 -19q4 -8 4 -51v-670q0 -37 -39 -36q-35 0 -35 36v666h-94q-45 0 -45 39zM195 354q0 12 8 27l280 698q14 35 39 35q16 0 24.5 -15.5t2.5 -33.5q-127 -324 -281 -717q-8 -25 -41 -24q-32 -1 -32 30zM432 532q0 115 66 179q59 55 147 55 t154.5 -53.5t66.5 -137.5q0 -86 -73 -180l-244 -319h278q53 0 54 -39q0 -37 -54 -37h-329q-59 0 -60 39q0 18 19 37l278 377q43 59 43 114t-39 91t-92 36q-127 0 -133 -166q0 -57 -41 -57t-41 61z" />
<glyph unicode="&#xc0;" horiz-adv-x="1327" d="M510 1749q0 10 6 22l137 320q20 45 76 45q33 0 59.5 -17.5t26.5 -44.5q0 -10 -4 -20l-139 -315q-20 -49 -82 -50q-80 1 -80 60zM0 70q0 18 8 43l463 1310q35 92 119 93q84 0 119 -93l479 -1310q8 -25 8 -45q0 -70 -70 -70q-55 0 -73 51l-95 256h-725l-75 -227 q-27 -80 -92 -80q-66 0 -66 72zM285 473h606l-299 834z" />
<glyph unicode="&#xc2;" horiz-adv-x="1327" d="M39 1759q0 29 19 64l457 807q29 51 83 51q55 0 84 -51l441 -807q16 -31 16 -62q0 -72 -65 -71q-61 0 -107 84l-369 690l-389 -690q-45 -82 -108 -82q-62 -1 -62 67zM0 70q0 18 8 43l463 1310q35 92 119 93q84 0 119 -93l479 -1310q8 -25 8 -45q0 -70 -70 -70 q-55 0 -73 51l-95 256h-725l-75 -227q-27 -80 -92 -80q-66 0 -66 72zM285 473h606l-299 834z" />
<glyph unicode="&#xc3;" horiz-adv-x="1327" d="M90 1774q0 98 92 170q86 70 187 70q106 0 248.5 -85t189.5 -85q66 0 113 83.5t100 83.5q72 0 71 -90q0 -102 -104 -170q-92 -61 -197 -61q-94 0 -222 81t-187 81q-63 0 -124 -81t-99 -81q-68 0 -68 84zM0 70q0 18 8 43l463 1310q35 92 119 93q84 0 119 -93l479 -1310 q8 -25 8 -45q0 -70 -70 -70q-55 0 -73 51l-95 256h-725l-75 -227q-27 -80 -92 -80q-66 0 -66 72zM285 473h606l-299 834z" />
<glyph unicode="&#xc4;" horiz-adv-x="1327" d="M297 1798q0 43 26.5 74.5t73.5 31.5q55 0 88 -32q27 -31 27 -74t-28.5 -76t-77.5 -33q-51 0 -82 35q-27 29 -27 74zM666 1800q0 43 26.5 73.5t73.5 30.5q55 0 86 -31.5t31 -74.5t-30 -76t-81 -33q-49 0 -77.5 34t-28.5 77zM0 70q0 18 8 43l463 1310q35 92 119 93 q84 0 119 -93l479 -1310q8 -25 8 -45q0 -70 -70 -70q-55 0 -73 51l-95 256h-725l-75 -227q-27 -80 -92 -80q-66 0 -66 72zM285 473h606l-299 834z" />
<glyph unicode="&#xc5;" horiz-adv-x="1327" d="M389 1767q0 80 52 136t151 56q96 0 149 -63q49 -55 49 -137t-49 -142q-57 -66 -149 -65q-92 0 -150 67q-53 62 -53 148zM491 1755q0 -41 28 -71t79 -30q43 0 67.5 30t24.5 69q0 41 -25.5 71.5t-72.5 30.5t-74 -29.5t-27 -70.5zM0 70q0 18 8 43l463 1310q35 92 119 93 q84 0 119 -93l479 -1310q8 -25 8 -45q0 -70 -70 -70q-55 0 -73 51l-95 256h-725l-75 -227q-27 -80 -92 -80q-66 0 -66 72zM285 473h606l-299 834z" />
<glyph unicode="&#xc8;" horiz-adv-x="806" d="M264 1749q0 10 6 22l137 320q20 45 76 45q33 0 59.5 -17.5t26.5 -44.5q0 -10 -4 -20l-139 -315q-20 -49 -801405EFAD4" />
<glyph unicode="&#xca;" horiz-adv-x="806" d="M-207 1759q0 29 19 64l457 807q29 51 83 51q55 0 84 -51l441 -807q16 -31 16 -62q0 -72 -65 -71q-61 0 -100C05D40A65" />
<glyph unicode="&#xcb;" horiz-adv-x="806" d="M51 1798q0 43 26.5 74.5t73.5 31.5q55 0 88 -32q27 -31 27 -74t-28.5 -76t-77.5 -33q-51 0 -82 35q-27 29 0470A8CA43" />
<glyph unicode="&#xcc;" horiz-adv-x="329" d="M-6 1749q0 10 6 22l137 320q20 45 76 45q33 0 59.5 -17.5t26.5 -44.5q0 -10 -4 -20l-139 -315q-20 -49 -82 -50q-80 1 -80 60zM0 76v1368q0 76 74 76q76 0 76 -76v-1368q0 -76 -76 -76q-74 0 -74 76z" />
<glyph unicode="&#xce;" horiz-adv-x="329" d="M-478 1759q0 29 19 64l457 807q29 51 83 51q55 0 84 -51l441 -807q16 -31 16 -62q0 -72 -65 -71q-61 0 -107 84l-369 690l-389 -690q-45 -82 -108 -82q-62 -1 -62 67zM0 76v1368q0 76 74 76q76 0 76 -76v-1368q0 -76 -76 -76q-74 0 -74 76z" />
<glyph unicode="&#xcf;" horiz-adv-x="329" d="M-219 1798q0 43 26.5 74.5t73.5 31.5q55 0 88 -32q27 -31 27 -74t-28.5 -76t-77.5 -33q-51 0 -82 35q-27 29 -27 74zM150 1800q0 43 26.5 73.5t73.5 30.5q55 0 86 -31.5t31 -74.5t-30 -76t-81 -33q-49 0 -77.5 34t-28.5 77zM0 76v1368q0 76 74 76q76 0 76 -76v-1368 q0 -76 -76 -76q-74 0 -74 76z" />
<glyph unicode="&#xd1;" horiz-adv-x="1306" d="M-426 1774q0 98 92 170q86 70 187 70q106 0 248.5 -85t189.5 -85q66 0 113 83.5t100 83.5q72 0 71 -90q0 -102 -104 -170q-92 -61 -197 -61q-94 0 -222 81t-187 81q-63 0 -124 -81t-99 -81q-68 0 -68 84zM0 78v1352q0 90 74 90q57 0 106 -74l799 -1176v1170q0 78 74 78 q76 0 75 -78v-1350q0 -92 -73 -92q-59 0 -103 63l-802 1172v-1155q0 -80 -74 -80q-76 0 -76 80z" />
<glyph unicode="&#xd2;" horiz-adv-x="1468" d="M571 1749q0 10 6 22l137 320q20 45 76 45q33 0 59.5 -17.5t26.5 -44.5q0 -10 -4 -20l-139 -315q-20 -49 -82 -50q-80 1 -80 60zM0 776q0 322 162 545q180 246 489 246q313 0 498 -250q168 -225 168 -549q0 -322 -166 -545q-184 -248 -500 -248q-305 0 -487 252 q-164 225 -164 549zM172 782q0 -264 121 -450q135 -205 358 -205q236 0 371 199q123 178 123 438q0 264 -125 448q-137 205 -369 205q-229 0 -360 -198q-119 -179 -119 -437z" />
<glyph unicode="&#xd4;" horiz-adv-x="1468" d="M100 1759q0 29 19 64l457 807q29 51 83 51q55 0 84 -51l441 -807q16 -31 16 -62q0 -72 -65 -71q-61 0 -107 84l-369 690l-389 -690q-45 -82 -108 -82q-62 -1 -62 67zM0 776q0 322 162 545q180 246 489 246q313 0 498 -250q168 -225 168 -549q0 -322 -166 -545 q-184 -248 -500 -248q-305 0 -487 252q-164 225 -164 549zM172 782q0 -264 121 -450q135 -205 358 -205q236 0 371 199q123 178 123 438q0 264 -125 448q-137 205 -369 205q-229 0 -360 -198q-119 -179 -119 -437z" />
<glyph unicode="&#xd5;" horiz-adv-x="1468" d="M152 1774q0 98 92 170q86 70 187 70q106 0 248.5 -85t189.5 -85q66 0 113 83.5t100 83.5q72 0 71 -90q0 -102 -104 -170q-92 -61 -197 -61q-94 0 -222 81t-187 81q-63 0 -124 -81t-99 -81q-68 0 -68 84zM0 776q0 322 162 545q180 246 489 246q313 0 498 -250 q168 -225 168 -549q0 -322 -166 -545q-184 -248 -500 -248q-305 0 -487 252q-164 225 -164 549zM172 782q0 -264 121 -450q135 -205 358 -205q236 0 371 199q123 178 123 438q0 264 -125 448q-137 205 -369 205q-229 0 -360 -198q-119 -179 -119 -437z" />
<glyph unicode="&#xd6;" horiz-adv-x="1468" d="M358 1798q0 43 26.5 74.5t73.5 31.5q55 0 88 -32q27 -31 27 -74t-28.5 -76t-77.5 -33q-51 0 -82 35q-27 29 -27 74zM727 1800q0 43 26.5 73.5t73.5 30.5q55 0 86 -31.5t31 -74.5t-30 -76t-81 -33q-49 0 -77.5 34t-28.5 77zM0 776q0 322 162 545q180 246 489 246 q313 0 498 -250q168 -225 168 -549q0 -322 -166 -545q-184 -248 -500 -248q-305 0 -487 252q-164 225 -164 549zM172 782q0 -264 121 -450q135 -205 358 -205q236 0 371 199q123 178 123 438q0 264 -125 448q-137 205 -369 205q-229 0 -360 -198q-119 -179 -119 -437z" />
<glyph unicode="&#xd9;" horiz-adv-x="1335" d="M502 1749q0 10 6 22l137 320q20 45 76 45q33 0 59.5 -17.5t26.5 -44.5q0 -10 -4 -20l-139 -315q-20 -49 -82 -50q-80 1 -80 60zM0 502v928q0 88 84 88q82 0 82 -88v-912q0 -236 215 -340q106 -52 211 -52q94 0 188 42q215 98 215 350v912q0 88 84 88t84 -88v-928 q0 -246 -184 -393q-166 -133 -406 -134q-233 0 -395 131q-178 146 -178 396z" />
<glyph unicode="&#xdb;" horiz-adv-x="1335" d="M30 1759q0 29 19 64l457 807q29 51 83 51q55 0 84 -51l441 -807q16 -31 16 -62q0 -72 -65 -71q-61 0 -107 84l-369 690l-389 -690q-45 -82 -108 -82q-62 -1 -62 67zM0 502v928q0 88 84 88q82 0 82 -88v-912q0 -236 215 -340q106 -52 211 -52q94 0 188 42q215 98 215 350 v912q0 88 84 88t84 -88v-928q0 -246 -184 -393q-166 -133 -406 -134q-233 0 -395 131q-178 146 -178 396z" />
<glyph unicode="&#xdc;" horiz-adv-x="1335" d="M289 1798q0 43 26.5 74.5t73.5 31.5q55 0 88 -32q27 -31 27 -74t-28.5 -76t-77.5 -33q-51 0 -82 35q-27 29 -27 74zM658 1800q0 43 26.5 73.5t73.5 30.5q55 0 86 -31.5t31 -74.5t-30 -76t-81 -33q-49 0 -77.5 34t-28.5 77zM0 502v928q0 88 84 88q82 0 82 -88v-912 q0 -236 215 -340q106 -52 211 -52q94 0 188 42q215 98 215 350v912q0 88 84 88t84 -88v-928q0 -246 -184 -393q-166 -133 -406 -134q-233 0 -395 131q-178 146 -178 396z" />
<glyph unicode="&#xe0;" horiz-adv-x="1122" d="M801 1364q0 10 6 22l137 320q20 45 76 45q33 0 59.5 -17.5t26.5 -44.5q0 -10 -4 -20l-139 -315q-20 -49 -82 -50q-80 1 -80 60zM-4 545q0 250 121 430q133 199 352 199q102 0 197.5 -53.5t138.5 -133.5q0 29 -2 96q0 98 78 99q76 0 75 -95v-1044q0 -61 -73 -61 q-74 0 -76 58t-2 87q-72 -90 -162 -123q-74 -29 -203 -29q-213 0 -336 177q-108 157 -108 393zM162 561q0 -186 76 -315q86 -143 231 -144q158 0 254 148q86 133 86 321q0 182 -84 308q-94 139 -256 139q-145 0 -231 -141q-76 -130 -76 -316z" />
<glyph unicode="&#xe2;" horiz-adv-x="1122" d="M329 1374q0 29 19 64l457 807q29 51 83 51q55 0 84 -51l441 -807q16 -31 16 -62q0 -72 -65 -71q-61 0 -107 84l-369 690l-389 -690q-45 -82 -108 -82q-62 -1 -62 67zM-4 545q0 250 121 430q133 199 352 199q102 0 197.5 -53.5t138.5 -133.5q0 29 -2 96q0 98 78 99 q76 0 75 -95v-1044q0 -61 -73 -61q-74 0 -76 58t-2 87q-72 -90 -162 -123q-74 -29 -203 -29q-213 0 -336 177q-108 157 -108 393zM162 561q0 -186 76 -315q86 -143 231 -144q158 0 254 148q86 133 86 321q0 182 -84 308q-94 139 -256 139q-145 0 -231 -141 q-76 -130 -76 -316z" />
<glyph unicode="&#xe3;" horiz-adv-x="1122" d="M381 1389q0 98 92 170q86 70 187 70q106 0 248.5 -85t189.5 -85q66 0 113 83.5t100 83.5q72 0 71 -90q0 -102 -104 -170q-92 -61 -197 -61q-94 0 -222 81t-187 81q-63 0 -124 -81t-99 -81q-68 0 -68 84zM-4 545q0 250 121 430q133 199 352 199q102 0 197.5 -53.5 t138.5 -133.5q0 29 -2 96q0 98 78 99q76 0 75 -95v-1044q0 -61 -73 -61q-74 0 -76 58t-2 87q-72 -90 -162 -123q-74 -29 -203 -29q-213 0 -336 177q-108 157 -108 393zM162 561q0 -186 76 -315q86 -143 231 -144q158 0 254 148q86 133 86 321q0 182 -84 308 q-94 139 -256 139q-145 0 -231 -141q-76 -130 -76 -316z" />
<glyph unicode="&#xe4;" horiz-adv-x="1122" d="M588 1413q0 43 26.5 74.5t73.5 31.5q55 0 88 -32q27 -31 27 -74t-28.5 -76t-77.5 -33q-51 0 -82 35q-27 29 -27 74zM957 1415q0 43 26.5 73.5t73.5 30.5q55 0 86 -31.5t31 -74.5t-30 -76t-81 -33q-49 0 -77.5 34t-28.5 77zM-4 545q0 250 121 430q133 199 352 199 q102 0 197.5 -53.5t138.5 -133.5q0 29 -2 96q0 98 78 99q76 0 75 -95v-1044q0 -61 -73 -61q-74 0 -76 58t-2 87q-72 -90 -162 -123q-74 -29 -203 -29q-213 0 -336 177q-108 157 -108 393zM162 561q0 -186 76 -315q86 -143 231 -144q158 0 254 148q86 133 86 321 q0 182 -84 308q-94 139 -256 139q-145 0 -231 -141q-76 -130 -76 -316z" />
<glyph unicode="&#xe5;" horiz-adv-x="1122" d="M680 1520q0 80 52 136t151 56q96 0 149 -63q49 -55 49 -137t-49 -142q-57 -66 -149 -65q-92 0 -150 67q-53 62 -53 148zM782 1508q0 -41 28 -71t79 -30q43 0 67.5 30t24.5 69q0 41 -25.5 71.5t-72.5 30.5t-74 -29.5t-27 -70.5zM-4 545q0 250 121 430q133 199 352 199 q102 0 197.5 -53.5t138.5 -133.5q0 29 -2 96q0 98 78 99q76 0 75 -95v-1044q0 -61 -73 -61q-74 0 -76 58t-2 87q-72 -90 -162 -123q-74 -29 -203 -29q-213 0 -336 177q-108 157 -108 393zM162 561q0 -186 76 -315q86 -143 231 -144q158 0 254 148q86 133 86 321 q0 182 -84 308q-94 139 -256 139q-145 0 -231 -141q-76 -130 -76 -316z" />
<glyph unicode="&#xe8;" horiz-adv-x="1099" d="M416 1358q0 10 6 22l137 320q20 45 76 45q33 0 59.5 -17.5t26.5 -44.5q0 -10 -4 -20l-139 -315q-20 -49 -82 -50q-80 1 -80 60zM0 573q0 244 127 414q137 188 369 189q219 0 346 -138.5t127 -373.5q0 -166 -54 -166h-741q0 -145 107.5 -268.5t246.5 -123.5q84 0 164 46 q39 20 115 79q55 45 80 45q31 0 53.5 -24.5t22.5 -52.5q0 -25 -15 -41q-145 -184 -420 -185q-252 0 -399 189q-129 165 -129 411zM174 653h641q0 180 -98 285q-88 94 -217 94t-221 -94q-101 -107 -105 -285z" />
<glyph unicode="&#xea;" horiz-adv-x="1099" d="M-56 1368q0 29 19 64l457 807q29 51 83 51q55 0 84 -51l441 -807q16 -31 16 -62q0 -72 -65 -71q-61 0 -107 84l-369 690l-389 -690q-45 -82 -108 -82q-62 -1 -62 67zM0 573q0 244 127 414q137 188 369 189q219 0 346 -138.5t127 -373.5q0 -166 -54 -166h-741 q0 -145 107.5 -268.5t246.5 -123.5q84 0 164 46q39 20 115 79q55 45 80 45q31 0 53.5 -24.5t22.5 -52.5q0 -25 -15 -41q-145 -184 -420 -185q-252 0 -399 189q-129 165 -129 411zM174 653h641q0 180 -98 285q-88 94 -217 94t-221 -94q-101 -107 -105 -285z" />
<glyph unicode="&#xeb;" horiz-adv-x="1099" d="M203 1407q0 43 26.5 74.5t73.5 31.5q55 0 88 -32q27 -31 27 -74t-28.5 -76t-77.5 -33q-51 0 -82 35q-27 29 -27 74zM572 1409q0 43 26.5 73.5t73.5 30.5q55 0 86 -31.5t31 -74.5t-30 -76t-81 -33q-49 0 -77.5 34t-28.5 77zM0 573q0 244 127 414q137 188 369 189 q219 0 346 -138.5t127 -373.5q0 -166 -54 -166h-741q0 -145 107.5 -268.5t246.5 -123.5q84 0 164 46q39 20 115 79q55 45 80 45q31 0 53.5 -24.5t22.5 -52.5q0 -25 -15 -41q-145 -184 -420 -185q-252 0 -399 189q-129 165 -129 411zM174 653h641q0 180 -98 285 q-88 94 -217 94t-221 -94q-101 -107 -105 -285z" />
<glyph unicode="&#xec;" horiz-adv-x="368" d="M25 1702q0 10 6 22l137 320q20 45 76 45q33 0 59.5 -17.5t26.5 -44.5q0 -10 -4 -20l-139 -315q-20 -49 -82 -50q-80 1 -80 60zM0 1421q0 98 104 99q49 0 79 -34t30 -77q0 -98 -111 -98q-47 0 -74.5 33.5t-27.5 76.5zM31 76v1022q0 76 73 76q78 0 78 -76v-1022 q0 -78 -76 -78q-75 0 -75 78z" />
<glyph unicode="&#xee;" horiz-adv-x="368" d="M-445 1712q0 29 19 64l457 807q29 51 83 51q55 0 84 -51l441 -807q16 -31 16 -62q0 -72 -65 -71q-61 0 -107 84l-369 690l-389 -690q-45 -82 -108 -82q-62 -1 -62 67zM0 1421q0 98 104 99q49 0 79 -34t30 -77q0 -98 -111 -98q-47 0 -74.5 33.5t-27.5 76.5zM31 76v1022 q0 76 73 76q78 0 78 -76v-1022q0 -78 -76 -78q-75 0 -75 78z" />
<glyph unicode="&#xef;" horiz-adv-x="368" d="M-188 1751q0 43 26.5 74.5t73.5 31.5q55 0 88 -32q27 -31 27 -74t-28.5 -76t-77.5 -33q-51 0 -82 35q-27 29 -27 74zM181 1753q0 43 26.5 73.5t73.5 30.5q55 0 86 -31.5t31 -74.5t-30 -76t-81 -33q-49 0 -77.5 34t-28.5 77zM0 1421q0 98 104 99q49 0 79 -34t30 -77 q0 -98 -111 -98q-47 0 -74.5 33.5t-27.5 76.5zM31 76v1022q0 76 73 76q78 0 78 -76v-1022q0 -78 -76 -78q-75 0 -75 78z" />
<glyph unicode="&#xf1;" horiz-adv-x="1017" d="M-70 1380q0 98 92 170q86 70 187 70q106 0 248.5 -85t189.5 -85q66 0 113 83.5t100 83.5q72 0 71 -90q0 -102 -104 -170q-92 -61 -197 -61q-94 0 -222 81t-187 81q-63 0 -124 -81t-99 -81q-68 0 -68 84zM0 74v1030q0 70 74 70q76 0 78 -74q1 -41 1 -67t-1 -38 q111 178 327 179q154 0 262 -101q119 -109 119 -295v-704q0 -76 -78 -76q-76 0 -75 76v688q0 119 -76 190q-72 63 -174 64q-121 0 -207 -84q-98 -94 -98 -254v-604q0 -76 -78 -76q-74 0 -74 76z" />
<glyph unicode="&#xf2;" horiz-adv-x="1146" d="M416 1356q0 10 6 22l137 320q20 45 76 45q33 0 59.5 -17.5t26.5 -44.5q0 -10 -4 -20l-139 -315q-20 -49 -82 -50q-80 1 -80 60zM0 575q0 244 123 412q137 186 373 187q231 0 370 -193q125 -172 125 -420q0 -240 -123 -403q-135 -182 -372 -183q-236 0 -373 189 q-123 167 -123 411zM172 590q0 -190 82 -330q92 -152 242 -151q158 0 245 137q80 121 80 303q0 193 -86 334q-92 154 -239 153q-158 0 -246 -139q-78 -123 -78 -307z" />
<glyph unicode="&#xf4;" horiz-adv-x="1146" d="M-56 1366q0 29 19 64l457 807q29 51 83 51q55 0 84 -51l441 -807q16 -31 16 -62q0 -72 -65 -71q-61 0 -107 84l-369 690l-389 -690q-45 -82 -108 -82q-62 -1 -62 67zM0 575q0 244 123 412q137 186 373 187q231 0 370 -193q125 -172 125 -420q0 -240 -123 -403 q-135 -182 -372 -183q-236 0 -373 189q-123 167 -123 411zM172 590q0 -190 82 -330q92 -152 242 -151q158 0 245 137q80 121 80 303q0 193 -86 334q-92 154 -239 153q-158 0 -246 -139q-78 -123 -78 -307z" />
<glyph unicode="&#xf5;" horiz-adv-x="1146" d="M-4 1380q0 98 92 170q86 70 187 70q106 0 248.5 -85t189.5 -85q66 0 113 83.5t100 83.5q72 0 71 -90q0 -102 -104 -170q-92 -61 -197 -61q-94 0 -222 81t-187 81q-63 0 -124 -81t-99 -81q-68 0 -68 84zM0 575q0 244 123 412q137 186 373 187q231 0 370 -193 q125 -172 125 -420q0 -240 -123 -403q-135 -182 -372 -183q-236 0 -373 189q-123 167 -123 411zM172 590q0 -190 82 -330q92 -152 242 -151q158 0 245 137q80 121 80 303q0 193 -86 334q-92 154 -239 153q-158 0 -246 -139q-78 -123 -78 -307z" />
<glyph unicode="&#xf6;" horiz-adv-x="1146" d="M203 1405q0 43 26.5 74.5t73.5 31.5q55 0 88 -32q27 -31 27 -74t-28.5 -76t-77.5 -33q-51 0 -82 35q-27 29 -27 74zM572 1407q0 43 26.5 73.5t73.5 30.5q55 0 86 -31.5t31 -74.5t-30 -76t-81 -33q-49 0 -77.5 34t-28.5 77zM0 575q0 244 123 412q137 186 373 187 q231 0 370 -193q125 -172 125 -420q0 -240 -123 -403q-135 -182 -372 -183q-236 0 -373 189q-123 167 -123 411zM172 590q0 -190 82 -330q92 -152 242 -151q158 0 245 137q80 121 80 303q0 193 -86 334q-92 154 -239 153q-158 0 -246 -139q-78 -123 -78 -307z" />
<glyph unicode="&#xf9;" horiz-adv-x="1021" d="M348 1356q0 10 6 22l137 320q20 45 76 45q33 0 59.5 -17.5t26.5 -44.5q0 -10 -4 -20l-139 -315q-20 -49 -82 -50q-80 1 -80 60zM0 350v711q0 76 74 76q76 0 76 -76v-662q0 -137 86 -215q78 -72 188 -71q115 0 194 71q88 82 89 215v662q0 76 73 76q76 0 76 -76v-711 q0 -233 -221 -330q-105 -46 -209 -45l-205 43q-221 96 -221 332z" />
<glyph unicode="&#xfb;" horiz-adv-x="1021" d="M-123 1366q0 29 19 64l457 807q29 51 83 51q55 0 84 -51l441 -807q16 -31 16 -62q0 -72 -65 -71q-61 0 -107 84l-369 690l-389 -690q-45 -82 -108 -82q-62 -1 -62 67zM0 350v711q0 76 74 76q76 0 76 -76v-662q0 -137 86 -215q78 -72 188 -71q115 0 194 71q88 82 89 215 v662q0 76 73 76q76 0 76 -76v-711q0 -233 -221 -330q-105 -46 -209 -45l-205 43q-221 96 -221 332z" />
<glyph unicode="&#xfc;" horiz-adv-x="1021" d="M135 1405q0 43 26.5 74.5t73.5 31.5q55 0 88 -32q27 -31 27 -74t-28.5 -76t-77.5 -33q-51 0 -82 35q-27 29 -27 74zM504 1407q0 43 26.5 73.5t73.5 30.5q55 0 86 -31.5t31 -74.5t-30 -76t-81 -33q-49 0 -77.5 34t-28.5 77zM0 350v711q0 76 74 76q76 0 76 -76v-662 q0 -137 86 -215q78 -72 188 -71q115 0 194 71q88 82 89 215v662q0 76 73 76q76 0 76 -76v-711q0 -233 -221 -330q-105 -46 -209 -45l-205 43q-221 96 -221 332z" />
<glyph unicode="&#xff;" horiz-adv-x="1007" d="M504 1405q0 43 26.5 74.5t73.5 31.5q55 0 88 -32q27 -31 27 -74t-28.5 -76t-77.5 -33q-51 0 -82 35q-27 29 -27 74zM873 1407q0 43 26.5 73.5t73.5 30.5q55 0 86 -31.5t31 -74.5t-30 -76t-81 -33q-49 0 -77.5 34t-28.5 77zM0 1059q0 76 72 76q66 0 88 -72l262 -809 l289 819q23 63 86 64q74 0 73 -74q0 -20 -10 -45l-506 -1415q-25 -70 -88 -70q-70 0 -69 74q0 20 8 45l149 403l-344 955q-10 26 -10 49z" />
<glyph unicode="&#x152;" horiz-adv-x="2275" d="M1468 92v1331q0 92 84 93h520q76 0 76 -76q0 -74 -76 -74h-454v-504h438q76 0 76 -78q0 -72 -76 -71h-438v-563h471q88 0 88 -76q0 -74 -88 -74h-537q-55 0 -69.5 18.5t-14.5 73.5zM0 776q0 322 162 545q180 246 489 246q313 0 498 -250q168 -225 168 -549 q0 -322 -166 -545q-184 -248 -500 -248q-305 0 -487 252q-164 225 -164 549zM172 782q0 -264 121 -450q135 -205 358 -205q236 0 371 199q123 178 123 438q0 264 -125 448q-137 205 -369 205q-229 0 -360 -198q-119 -179 -119 -437z" />
<glyph unicode="&#x153;" horiz-adv-x="2246" d="M1147 573q0 244 127 414q137 188 369 189q219 0 346 -138.5t127 -373.5q0 -166 -54 -166h-741q0 -145 107.5 -268.5t246.5 -123.5q84 0 164 46q39 20 115 79q55 45 80 45q31 0 53.5 -24.5t22.5 -52.5q0 -25 -15 -41q-145 -184 -420 -185q-252 0 -399 189 q-129 165 -129 411zM1321 653h641q0 180 -98 285q-88 94 -217 94t-221 -94q-101 -107 -105 -285zM0 575q0 244 123 412q137 186 373 187q231 0 370 -193q125 -172 125 -420q0 -240 -123 -403q-135 -182 -372 -183q-236 0 -373 189q-123 167 -123 411zM172 590 q0 -190 82 -330q92 -152 242 -151q158 0 245 137q80 121 80 303q0 193 -86 334q-92 154 -239 153q-158 0 -246 -139q-78 -123 -78 -307z" />
<glyph unicode="&#x178;" horiz-adv-x="1101" d="M197 1798q0 43 26.5 74.5t73.5 31.5q55 0 88 -32q27 -31 27 -74t-28.5 -76t-77.5 -33q-51 0 -82 35q-27 29 -27 74zM566 1800q0 43 26.5 73.5t73.5 30.5q55 0 86 -31.5t31 -74.5t-30 -76t-81 -33q-49 0 -77.5 34t-28.5 77zM0 1448q0 72 68 72q39 0 63 -43l358 -598 l351 594q29 47 73 47q68 0 68 -66q0 -23 -12 -43l-412 -698v-625q0 -88 -76 -88q-78 0 -78 88v625l-389 682q-14 26 -14 53z" />
<glyph unicode="&#x2c6;" d="M59 614q0 29 19 64l457 807q29 51 83 51q55 0 84 -51l441 -807q16 -31 16 -62q0 -72 -65 -71q-61 0 -107 84l-369 690l-389 -690q-45 -82 -108 -82q-62 -1 -62 67z" />
<glyph unicode="&#x2dc;" horiz-adv-x="552" d="M-500 207q0 98 92 170q86 70 187 70q106 0 248.5 -85t189.5 -85q66 0 113 83.5t100 83.5q72 0 71 -90q0 -102 -104 -170q-92 -61 -197 -61q-94 0 -222 81t-187 81q-63 0 -124 -81t-99 -81q-68 0 -68 84z" />
<glyph unicode="&#x3bc;" horiz-adv-x="1019" d="M0 -410v1471q0 76 76 76q74 0 74 -76v-674q0 -115 77 -182q70 -63 174 -64q123 0 209 82q96 94 97 250v588q0 76 75 76q74 0 74 -76v-973q0 -90 -74 -90t-73 80q-2 49 -2 78q-115 -174 -324 -174q-129 0 -233 77v-469q0 -76 -76 -75q-74 -1 -74 75z" />
<glyph unicode="&#x2000;" horiz-adv-x="1339" />
<glyph unicode="&#x2001;" horiz-adv-x="2680" />
<glyph unicode="&#x2002;" horiz-adv-x="1339" />
<glyph unicode="&#x2003;" horiz-adv-x="2680" />
<glyph unicode="&#x2004;" horiz-adv-x="892" />
<glyph unicode="&#x2005;" horiz-adv-x="669" />
<glyph unicode="&#x2006;" horiz-adv-x="446" />
<glyph unicode="&#x2007;" horiz-adv-x="446" />
<glyph unicode="&#x2008;" horiz-adv-x="333" />
<glyph unicode="&#x2009;" horiz-adv-x="534" />
<glyph unicode="&#x200a;" horiz-adv-x="147" />
<glyph unicode="&#x2010;" horiz-adv-x="761" d="M6 565q0 31 24.5 55.5t65.5 24.5h422q88 0 88 -80q0 -76 -88 -76h-422q-90 0 -90 76z" />
<glyph unicode="&#x2011;" horiz-adv-x="761" d="M6 565q0 31 24.5 55.5t65.5 24.5h422q88 0 88 -80q0 -76 -88 -76h-422q-90 0 -90 76z" />
<glyph unicode="&#x2012;" horiz-adv-x="761" d="M6 565q0 31 24.5 55.5t65.5 24.5h422q88 0 88 -80q0 -76 -88 -76h-422q-90 0 -90 76z" />
<glyph unicode="&#x2013;" horiz-adv-x="1404" d="M0 565q0 31 23.5 55.5t64.5 24.5h1036q88 0 88 -80q0 -76 -88 -76h-1036q-88 0 -88 76z" />
<glyph unicode="&#x2014;" horiz-adv-x="1810" d="M0 565q0 31 23.5 55.5t64.5 24.5h1442q88 0 88 -80q0 -76 -88 -76h-1442q-88 0 -88 76z" />
<glyph unicode="&#x2018;" horiz-adv-x="495" d="M0 1460q0 -20 10 -41l133 -303q18 -43 74 -43q33 0 59.5 17.5t26.5 44.5q0 10 -4 20l-123 313q-31 78 -92 78q-35 0 -59.5 -24.5t-24.5 -61.5z" />
<glyph unicode="&#x2019;" horiz-adv-x="495" d="M0 1135q0 10 4 20l123 313q31 78 92 78q35 0 59.5 -24.5t24.5 -61.5q0 -20 -8 -41l-133 -303q-20 -43 -76 -43q-33 0 -59.5 17.5t-26.5 44.5z" />
<glyph unicode="&#x201a;" horiz-adv-x="495" d="M0 -205q0 12 6 25l137 336q23 53 82 53q31 0 54.5 -16.5t23.5 -40.5q0 -10 -6 -21l-154 -362q-18 -41 -63 -41q-31 0 -55.5 19t-24.5 48z" />
<glyph unicode="&#x201c;" horiz-adv-x="829" d="M0 1460q0 -20 10 -41l133 -303q18 -43 74 -43q33 0 59.5 17.5t26.5 44.5q0 10 -4 20l-123 313q-31 78 -92 001DB8EAA3" />
<glyph unicode="&#x201d;" horiz-adv-x="829" d="M0 1135q0 10 4 20l123 313q31 78 92 78q35 0 59.5 -24.5t24.5 -61.5q0 -20 -8 -41l-133 -303q-20 -43 -76 09B9628A9C" />
<glyph unicode="&#x201e;" horiz-adv-x="827" d="M0 -203q0 10 4 23l139 336q18 43 82 43q76 0 76 -49q0 -8 -4 -19l-154 -362q-12 -29 -61 -29q-82 0 -82 57zM334 -203q0 10 4 23l137 336q18 43 82 43q78 0 78 -49q0 -8 -4 -19l-156 -362q-12 -29 -59 -29q-82 0 -82 57z" />
<glyph unicode="&#x2022;" horiz-adv-x="1130" d="M0 707q0 193 117 325q131 147 352 148q221 0 350 -148q119 -133 119 -325q0 -193 -119 -326q-129 -150 -350 -150t-352 150q-117 133 -117 326z" />
<glyph unicode="&#x2026;" horiz-adv-x="1073" d="M0 106q0 41 27.5 71t78.5 30q49 0 79 -34t30 -77q0 -96 -102 -96q-53 0 -84 35q-29 28 -29 71zM334 106q0 41 27.5 71t76.5 30q51 0 80 -34t29 -77q0 -96 -101 -96q-53 0 -84 35q-28 28 -28 71zM666 106q0 41 28.5 71t77.5 30t79 -34t30 -77q0 -96 -101 -96q-53 0 -86 35 q-28 28 -28 71z" />
<glyph unicode="&#x202f;" horiz-adv-x="534" />
<glyph unicode="&#x2039;" horiz-adv-x="1331" d="M0 567q0 59 72 92l932 435q59 27 98 10q37 -16 37 -55q0 -55 -70 -88l-844 -406l828 -401q74 -37 73 -95q0 -61 -69 -61q-33 0 -76 20l-909 453q-72 37 -72 96z" />
<glyph unicode="&#x203a;" horiz-adv-x="1331" d="M0 1055q0 63 72 63q25 0 49 -10l928 -455q90 -45 90 -96q0 -57 -107 -108l-911 -437q-23 -10 -45 -10q-74 0 -74 72q0 57 66 88l827 385l-827 422q-68 35 -68 86z" />
<glyph unicode="&#x205f;" horiz-adv-x="669" />
<glyph unicode="&#x2122;" horiz-adv-x="1384" d="M0 1509q0 35 37 35h379q39 0 39 -37t-39 -37h-152v-649q0 -51 -37 -51q-39 0 -39 51v649h-151q-37 0 -37 39zM373 825q12 84 102 670q8 63 64 64q55 0 71 -56l168 -590l176 590q18 55 72 56q53 0 64 -64l102 -670q6 -45 -35 -45q-37 0 -43 41l-92 633l-203 -633 q-14 -45 -41 -45q-29 0 -43 45l-194 633l-92 -633q-6 -43 -43 -43q-39 0 -33 47z" />
<glyph unicode="&#xe000;" horiz-adv-x="1135" d="M0 1135h1135v-1135h-1135v1135z" />
<glyph unicode="&#xfb01;" horiz-adv-x="976" d="M608 1421q0 98 104 99q49 0 79 -34t30 -77q0 -98 -111 -98q-47 0 -74.5 33.5t-27.5 76.5zM639 76v1022q0 76 73 76q78 0 78 -76v-1022q0 -78 -76 -78q-75 0 -75 78zM0 1055q0 80 84 80h96v196q0 188 166 189h133q90 0 90 -72q0 -68 -90 -68q-96 0 -114 -8 q-35 -16 -35 -94v-143q33 0 131 2q84 0 84 -78q0 -80 -88 -80l-127 2v-907q0 -76 -76 -76q-74 0 -74 76v907h-96q-84 0 -84 74z" />
<glyph unicode="&#xfb02;" horiz-adv-x="929" d="M608 76v1366q0 78 74 78q78 0 78 -78v-1366q0 -78 -76 -78t-76 78zM0 1055q0 80 84 80h96v196q0 188 166 189h133q90 0 90 -72q0 -68 -90 -68q-96 0 -114 -8q-35 -16 -35 -94v-143q33 0 131 2q84 0 84 -78q0 -80 -88 -80l-127 2v-907q0 -76 -76 -76q-74 0 -74 76v907h-96 q-84 0 -84 74z" />
<glyph unicode="&#xfb03;" horiz-adv-x="1585" d="M1217 1421q0 98 104 99q49 0 79 -34t30 -77q0 -98 -111 -98q-47 0 -74.5 33.5t-27.5 76.5zM1248 76v1022q0 76 73 76q78 0 78 -76v-1022q0 -78 -76 -78q-75 0 -75 78zM608 1055q0 80 84 80h96v196q0 188 166 189h133q90 0 90 -72q0 -68 -90 -68q-96 0 -114 -8 q-35 -16 -35 -94v-143q33 0 131 2q84 0 84 -78q0 -80 -88 -80l-127 2v-907q0 -76 -76 -76q-74 0 -74 76v907h-96q-84 0 -84 74zM0 1055q0 80 84 80h96v196q0 188 166 189h133q90 0 90 -72q0 -68 -90 -68q-96 0 -114 -8q-35 -16 -35 -94v-143q33 0 131 2q84 0 84 -78 q0 -80 -88 -80l-127 2v-907q0 -76 -76 -76q-74 0 -74 76v907h-96q-84 0 -84 74z" />
<glyph unicode="&#xfb04;" horiz-adv-x="1538" d="M1217 76v1366q0 78 74 78q78 0 78 -78v-1366q0 -78 -76 -78t-76 78zM608 1055q0 80 84 80h96v196q0 188 166 189h133q90 0 90 -72q0 -68 -90 -68q-96 0 -114 -8q-35 -16 -35 -94v-143q33 0 131 2q84 0 84 -78q0 -80 -88 -80l-127 2v-907q0 -76 -76 -76q-74 0 -74 76v907 h-96q-84 0 -84 74zM0 1055q0 80 84 80h96v196q0 188 166 189h133q90 0 90 -72q0 -68 -90 -68q-96 0 -114 -8q-35 -16 -35 -94v-143q33 0 131 2q84 0 84 -78q0 -80 -88 -80l-127 2v-907q0 -76 -76 -76q-74 0 -74 76v907h-96q-84 0 -84 74z" />
</font>
</defs>
</svg>
