<?xml version="1.0" standalone="no"?>
<!DOCTYPE svg PUBLIC "-//W3C//DTD SVG 1.1//EN" "http://www.w3.org/Graphics/SVG/1.1/DTD/svg11.dtd" >
<svg xmlns="http://www.w3.org/2000/svg">
<metadata>
This is a custom SVG webfont generated by Font Squirrel.
Copyright   : Copyright c Magenta Ltd 2004
Foundry     : Magenta Ltd
Foundry URL : httpwwwmagentagr
</metadata>
<defs>
<font id="MgOpenModataBold" horiz-adv-x="1531" >
<font-face units-per-em="2048" ascent="1638" descent="-410" />
<missing-glyph horiz-adv-x="552" />
<glyph unicode=" "  horiz-adv-x="552" />
<glyph unicode="&#x09;" horiz-adv-x="552" />
<glyph unicode="&#xa0;" horiz-adv-x="552" />
<glyph unicode="!" horiz-adv-x="575" d="M0 193q0 76 49 129q57 59 152 59q86 0 137 -59q45 -55 45 -132q0 -78 -45 -131q-51 -59 -137 -59q-94 0 -147.5 57.5t-53.5 135.5zM25 633v672q0 102 53 161q45 53 112 54q68 0 115 -54q53 -59 53 -161v-672q0 -90 -50 -140.5t-118 -50.5t-112 47q-53 54 -53 144z" />
<glyph unicode="&#x22;" horiz-adv-x="890" d="M0 997v385q0 66 41 102t98 36t100.5 -37t43.5 -101v-385q0 -66 -41 -101.5t-99 -35.5q-57 0 -100 35.5t-43 101.5zM418 997v385q0 66 45 103q39 35 96 35q55 0 97 -36t42 -102v-385q0 -66 -41 -101.5t-98 -35.5t-96 35q-45 36 -45 102z" />
<glyph unicode="#" horiz-adv-x="1288" d="M0 526q0 82 76 103q29 8 139 8l33 231q-100 0 -129 11q-57 23 -58 104q0 80 80 98q27 6 142 6l47 332q10 72 47 111t82 39q39 0 66.5 -31t27.5 -86q0 -16 -2 -33l-51 -332h182l49 332q25 150 123 150q39 0 67.5 -33t28.5 -86q0 -16 -4 -31l-49 -332q100 0 133 -12 q66 -23 66 -106q0 -76 -88 -95q-29 -6 -142 -6l-35 -231q98 0 127 -10q61 -20 62 -99q0 -84 -78 -102q-27 -8 -143 -8l-49 -332q-8 -47 -46 -73.5t-83 -26.5q-43 0 -70 22.5t-21 63.5l54 346h-187l-51 -332q-6 -49 -44 -77.5t-85 -28.5q-41 0 -67.5 24.5t-20.5 67.5l53 346 q-98 0 -125 10q-57 20 -57 98zM436 637h180l35 231h-184z" />
<glyph unicode="$" horiz-adv-x="1290" d="M0 227q0 72 48 123t122 51q33 0 137.5 -42t184.5 -42v306q-240 55 -371 196q-119 129 -119 291q0 170 127 295q135 137 363 160v42q0 32 0 29q0 88 69 88q61 0 64 -77q2 -63 2 -82q84 0 172 -31q104 -37 153 -98q35 -43 35 -109q0 -68 -37 -117q-39 -55 -100 -55 q-23 0 -100.5 36t-122.5 40v-295q238 -68 360 -211q111 -125 111 -285q0 -184 -133 -321q-137 -143 -338 -148v-90q0 -66 -66 -65q-68 0 -67 71q-2 43 -2 84q-291 0 -424 117q-68 57 -68 139zM348 1102q0 -100 144 -133v262q-144 -31 -144 -129zM627 317q98 0 98 117 q0 123 -98 154v-271z" />
<glyph unicode="%" horiz-adv-x="1611" d="M0 1163q0 143 84 244q92 113 246 113q158 0 250 -111q82 -98 82 -240q0 -143 -82 -241q-92 -111 -250 -111t-248 109q-82 96 -82 237zM178 76q0 51 35 110l750 1282q45 76 120 76q49 0 86 -34.5t37 -88.5q0 -41 -24 -84l-768 -1314q-37 -63 -113 -64q-49 0 -86 32t-37 85 zM244 1171q0 -35 23.5 -61.5t62.5 -26.5q82 0 82 82q0 88 -82 88q-86 0 -86 -82zM752 350q0 143 86 242q94 109 252 108q156 0 249 -110q84 -102 84 -246q0 -139 -82 -235q-92 -106 -251 -107q-160 0 -252 109q-86 98 -86 239zM1001 350q0 -35 24 -60.5t62 -25.5q84 0 84 82 q0 88 -81 88q-89 0 -89 -84z" />
<glyph unicode="&#x26;" horiz-adv-x="1624" d="M0 418q0 272 334 467q-125 139 -125 297q0 160 125 272.5t319 112.5q193 0 314 -121q115 -113 114 -275q0 -248 -247 -385l204 -231q45 45 142 174q45 53 106 53q57 0 101.5 -43t44.5 -102q0 -53 -37 -100q-51 -74 -158 -203q31 -39 117 -148q41 -53 41 -112 q0 -57 -38 -98.5t-95 -41.5q-68 0 -132 66q-49 45 -131 137q-199 -201 -450 -200q-221 0 -385 144t-164 337zM344 426q0 -78 70.5 -132t165.5 -54q135 0 221 112l-281 301q-176 -104 -176 -227zM537 1223q0 -57 36.5 -128t79.5 -110q49 31 82 94.5t33 122.5q0 117 -115 117 q-116 0 -116 -96z" />
<glyph unicode="'" horiz-adv-x="739" d="M0 954q0 55 35 115l182 313q78 137 195 138q84 0 120 -74q39 -78 -20 -178l-215 -369q-55 -96 -150 -96q-59 0 -103 42.5t-44 108.5z" />
<glyph unicode="(" horiz-adv-x="641" d="M0 594q0 586 156 842q66 106 157 106q53 0 90 -40t37 -103q0 -45 -20 -96q-137 -336 -137 -670q0 -340 153 -793q12 -35 13 -67q0 -61 -38 -102.5t-94 -41.5q-82 0 -143 92q-84 123 -131 369q-43 230 -43 504z" />
<glyph unicode=")" horiz-adv-x="641" d="M0 -227q0 -61 38 -102.5t91 -41.5q84 0 145 92q84 123 132 369q43 229 43 504q0 586 -158 842q-63 106 -156 106q-53 0 -90 -40t-37 -103q0 -45 21 -96q135 -336 135 -670q0 -340 -152 -793q-12 -34 -12 -67z" />
<glyph unicode="*" d="M395 1253q0 49 32 84t81 35t158 -86q-16 154 -17 144q0 86 123 86q45 0 78 -25q37 -31 31 -72l-15 -133q119 86 158 86q47 0 80 -38t33 -85q0 -59 -50.5 -82.5t-99.5 -44.5q45 -33 90 -63q55 -45 56 -92q0 -43 -28 -72t-71 -29q-41 0 -90 29l-78 57l15 -131 q6 -45 -35 -69q-33 -20 -80 -21q-43 0 -78 23q-41 25 -37 67l15 131q-35 -29 -72 -57q-45 -29 -84 -29q-45 0 -74.5 31t-29.5 76t55 88l90 61q-53 20 -105 41q-51 29 -51 90z" />
<glyph unicode="+" d="M162 600q0 63 37 108.5t100 45.5h313v317q0 66 45 101.5t107 35.5q61 0 106 -35.5t45 -101.5v-317h320q63 0 102 -47q33 -43 33 -105q0 -61 -33 -102q-39 -47 -102 -47h-320v-316q0 -66 -44 -101.5t-107 -35.5q-61 0 -106.5 36t-45.5 101v316h-313q-66 0 -101.5 44 t-35.5 103z" />
<glyph unicode="," horiz-adv-x="653" d="M-72 -180q0 49 29 100l182 318q61 104 168 104q63 0 110.5 -39t47.5 -98q0 -41 -27 -86l-215 -363q-51 -86 -141 -86q-61 0 -107.5 42t-46.5 108z" />
<glyph unicode="-" horiz-adv-x="989" d="M20 600q0 63 36 108.5t100 45.5h518q63 0 100 -46t37 -108q0 -59 -36 -103t-101 -44h-518q-63 0 -99.5 44t-36.5 103z" />
<glyph unicode="." horiz-adv-x="575" d="M0 193q0 76 49 129q57 59 152 59q86 0 137 -59q45 -53 45 -132q0 -78 -45 -131q-51 -59 -137 -59q-94 0 -150 61q-51 54 -51 132z" />
<glyph unicode="../../../../default.htm" d="M285 63q0 55 37 123l667 1266q61 117 152 117q68 0 96 -62q29 -66 -16 -153l-701 -1331q-41 -78 -121 -78q-47 0 -80.5 31.5t-33.5 86.5z" />
<glyph unicode="0" d="M131 766q0 326 164 551q180 250 489 250q283 0 457 -260q160 -238 160 -566q0 -317 -154 -528q-172 -238 -479 -238q-301 0 -477 248q-160 221 -160 543zM485 762q0 -184 70 -313q80 -141 215 -142q123 0 199 150q68 135 67 323q0 182 -65 303q-74 137 -205 138 q-133 0 -211 -144q-70 -129 -70 -315z" />
<glyph unicode="1" d="M455 1366q0 61 36.5 107.5t104.5 46.5h362q37 0 79 -41t42 -74v-1219q0 -100 -51 -155.5t-121 -55.5q-66 00C8CB99A41" />
<glyph unicode="2" d="M246 143q0 109 123 226q160 147 309 342q203 264 203 399q0 51 -39 86t-94 35q-66 0 -115 -53q-57 -61 -78 -179q-16 -106 -121 -106q-68 0 -123 48t-55 122q0 16 4 35q41 231 191 358q133 111 311 111q195 0 336 -127q152 -137 151 -353q0 -145 -80 -292 q-61 -113 -188 -252l-213 -226h397q55 0 89 -51t34 -116q0 -61 -31 -103q-33 -47 -92 -47h-782q-61 0 -99 40t-38 103z" />
<glyph unicode="3" d="M233 367q0 76 47.5 131t106.5 55q66 0 111 -70q55 -88 100 -123q63 -47 164 -47q78 0 127 52q43 45 43 108q0 57 -39 98t-113 41q-96 0 -149 56q-49 49 -49 123t51 129t139 55q53 0 98 32.5t45 79.5q0 10 -4 23q-41 145 -157 145q-72 0 -149 -50t-122 -120 q-41 -61 -100 -61q-53 0 -93 47t-40 117q0 78 55 153q94 129 198.5 177.5t284.5 48.5q201 0 322 -131q111 -119 111 -289q0 -209 -158 -336q238 -133 237 -369q0 -184 -145 -323q-152 -147 -375 -148q-154 0 -288 68q-150 76 -228 213q-31 56 -31 115z" />
<glyph unicode="4" d="M96 498q0 55 23 90l491 735q133 199 312 199q104 0 173.5 -73t69.5 -194v-602h88q86 0 138 -51q45 -45 45 -110q0 -63 -41 -107q-49 -49 -129 -49q-70 -2 -101 -2v-160q0 -82 -49 -129t-117 -47t-116.5 47t-48.5 133l2 156h-600q-70 0 -107 53q-33 45 -33 111zM516 653 h320v488z" />
<glyph unicode="5" d="M256 262q0 70 40 120t105 50q47 0 101 -31q90 -53 94 -55q63 -31 137 -31q96 0 150 66q45 57 45 145q0 98 -53.5 173t-139.5 75q-45 0 -98 -40t-123 -40q-63 0 -106 27q-53 31 -48 88l64 577q16 133 168 134h534q70 0 113 -52q37 -45 37 -108q0 -66 -37 -109 q-41 -49 -113 -49h-419l-17 -166q90 27 160 27q201 0 326 -164q115 -150 114 -362q0 -229 -135 -385q-156 -176 -432 -177q-258 0 -395 125q-72 66 -72 162z" />
<glyph unicode="6" d="M348 555q0 184 172 461q137 219 322 407q90 92 186 93q66 0 111 -44.5t45 -105.5t-45 -117l-254 -297q41 4 78 4q211 0 344 -149q121 -139 120 -334q0 -205 -139 -344q-160 -156 -448 -156q-238 0 -371 181q-121 159 -121 401zM705 494q0 -78 43 -134q49 -61 126 -61 q98 0 158 59q51 55 51 134q0 76 -49 126q-55 57 -147 58q-88 0 -139 -55q-43 -51 -43 -127z" />
<glyph unicode="7" d="M252 1354q0 66 33.5 116t89.5 50h749q59 0 108.5 -58.5t49.5 -120.5q0 -20 -8 -38l-537 -1178q-57 -125 -10C20E38A82" />
<glyph unicode="8" d="M201 510q12 213 200 326q-139 123 -139 288q0 174 146.5 308.5t359.5 134.5q215 0 356 -144q133 -135 133 0B206A3AC4" />
<glyph unicode="9" d="M115 1042q0 215 125 361q141 164 397 164q240 0 395 -127q170 -139 170 -373q0 -483 -514 -983q-90 -86 -10AA0010A55" />
<glyph unicode=":" horiz-adv-x="575" d="M0 195q0 78 53 134t150 56q84 0 135 -59q45 -55 45 -133q0 -76 -45 -130q-49 -59 -135 -59q-96 0 -149.5 5046013CA82" />
<glyph unicode=";" horiz-adv-x="653" d="M-72 -186q0 51 31 106l199 365q61 115 161 114q59 0 103.5 -41t44.5 -96q0 -33 -16 -61l-228 -445q-47 -94 -143 -94q-61 0 -106.5 42t-45.5 110zM80 829q0 78 54 133.5t151 55.5q86 0 134 -57.5t48 -135.5t-45 -131q-51 -57 -137 -57q-96 0 -150.5 57t-54.5 135z" />
<glyph unicode="&#x3c;" d="M184 610q0 102 160 176l752 353q53 25 102 24q66 0 107 -40t41 -95q0 -96 -115 -143l-639 -262l639 -289q119 -51 119 -148q0 -47 -35 -78.5t-92 -31.5q-51 0 -111 26l-782 351q-146 63 -146 157z" />
<glyph unicode="=" d="M166 868q0 59 41 104.5t112 45.5h885q76 0 120 -47t44 -111q0 -57 -39 -98t-108 -41h-902q-74 0 -113.5 43t-39.5 104zM168 369q0 59 43 103t117 44h876q76 0 123 -49q41 -43 41 -107q0 -57 -37 -96q-41 -45 -110 -45h-885q-80 0 -127 47q-41 42 -41 103z" />
<glyph unicode="&#x3e;" d="M172 166q0 98 119 151l649 287q-190 88 -614 264q-145 61 -146 168q0 76 76 107q84 35 201 -21l786 -368q117 -55 117 -152q0 -96 -117 -149l-837 -383q-53 -25 -103 -25q-59 0 -95 35t-36 86z" />
<glyph unicode="?" horiz-adv-x="1210" d="M0 1196q0 158 168 272q152 100 315 101q264 0 410 -150q125 -129 125 -325q0 -176 -98 -303q-104 -137 -267 -138q0 -29 -2 -90q0 -127 -143 -127q-74 0 -129 41q-61 43 -62 111v215q0 70 80 102q76 20 152 43q84 25 88 70q16 188 -139 188q-104 0 -175 -92t-167 -92 q-74 0 -115 50t-41 124zM283 190q0 76 52 132.5t148 56.5q88 0 137.5 -58.5t49.5 -136.5q0 -76 -45 -129q-53 -57 -142 -57q-94 0 -151 59q-49 55 -49 133z" />
<glyph unicode="@" horiz-adv-x="1740" d="M0 770q0 319 240.5 559t560.5 240q367 0 569 -211q178 -184 178 -457q0 -244 -139 -418q-150 -186 -387 -186q-119 0 -125 104q-123 -84 -244 -84q-131 0 -211 95q-86 102 -86 274q0 203 133 348q127 141 287 142q143 0 240 -125q10 45 43 79.5t78 34.5q82 0 82 -135 q0 -84 -31 -237q-33 -166 -37 -238q14 -4 29 -4q80 0 132 90t52 217q0 197 -121 332q-143 164 -416 164q-289 0 -448 -201q-139 -176 -141 -440q-2 -236 186 -389q176 -141 418 -142q127 0 323 82q33 14 62 15q41 0 64.5 -26t23.5 -60q0 -63 -70 -95q-100 -43 -233 -76.5 t-197 -33.5q-371 0 -590 207q-225 210 -225 575zM600 721q0 -190 133 -191q80 0 156 73t76 163q0 74 -54.5 118t-126.5 44q-76 0 -127 -49q-57 -58 -57 -158z" />
<glyph unicode="A" horiz-adv-x="1472" d="M0 127q0 27 10 53l406 1143q72 197 239 197q168 0 244 -197l438 -1133q12 -35 13 -65q0 -59 -43 -93t-105 -34q-117 0 -162 100q-35 70 -90 203h-567q-16 -61 -72 -197q-39 -111 -155 -110q-61 0 -108.5 37t-47.5 96zM481 623h369l-182 501z" />
<glyph unicode="B" horiz-adv-x="1288" d="M0 115v1239q0 55 41 110.5t92 55.5h518q141 0 244.5 -120t103.5 -267q0 -186 -168 -289q145 -20 224 -131q70 -98 69 -242q0 -182 -102 -319q-115 -152 -287 -152h-602q-51 0 -92 33t-41 82zM350 301h250q86 0 137 47q45 45 45 107q0 61 -47 105t-133 44h-252v-303z M350 918h217q84 0 84 126q0 57 -26.5 100.5t-73.5 43.5h-201v-270z" />
<glyph unicode="C" horiz-adv-x="1355" d="M0 756q0 326 182 557q203 254 541 254q160 0 233 -17q86 -18 230 -90q98 -49 98 -137q0 -63 -51 -113.5t-119 -50.5q-18 0 -37 6q-8 2 -172 56q-66 23 -162 22h-16q-168 -6 -266 -151q-90 -129 -90 -316q0 -188 92 -317q104 -145 280 -146q74 0 142 17q90 25 180 47 q18 6 37 6q70 0 125 -56.5t55 -123.5q0 -86 -96 -127q-139 -57 -228 -78q-98 -23 -245 -23q-340 0 -537 244q-176 218 -176 537z" />
<glyph unicode="D" horiz-adv-x="1413" d="M0 131v1223q0 55 40 110.5t93 55.5h467q313 0 498 -244q166 -219 166 -533q0 -303 -158 -512q-174 -231 -473 -231h-467q-63 0 -111 35q-55 37 -55 96zM350 313h217q158 0 248 146q80 127 80 313q0 170 -68 287q-74 129 -194 129h-283v-875z" />
<glyph unicode="E" horiz-adv-x="989" d="M0 115v1255q0 66 42 108t105 42h553q74 0 119 -58q39 -51 39 -123q0 -63 -31 -104q-35 -47 -96 -47h-399v-293h368q61 0 96 -49t35 -115q0 -61 -28 -102q-33 -47 -88 -47h-383v-269h368q80 0 125 -53q41 -45 41 -113q0 -59 -32.5 -103t-83.5 -44h-633q-37 0 -77 38 t-40 77z" />
<glyph unicode="F" horiz-adv-x="978" d="M0 166v1204q0 150 131 150h584q74 0 114.5 -52.5t40.5 -119.5q0 -59 -31.5 -102.5t-88.5 -43.5h-420v-244h368q63 0 100.5 -47t37.5 -112q0 -61 -35 -105q-37 -49 -103 -49h-368v-479q0 -78 -49.5 -121t-114.5 -43q-68 0 -117 43t-49 121z" />
<glyph unicode="G" horiz-adv-x="1562" d="M2 764q0 324 182 551q203 252 539 252q375 0 555 -181q68 -68 68 -145q0 -68 -46.5 -116t-107.5 -48q-55 0 -100 45q-119 119 -357 119q-225 0 -329 -244q-53 -124 -54 -245q0 -104 39 -207q92 -246 346 -246q334 0 334 289h-280q-63 0 -101 51q-35 45 -35 109 q0 63 35 108t101 45h495q139 0 139 -174q0 -752 -690 -752q-348 0 -551 246q-182 221 -182 543z" />
<glyph unicode="H" horiz-adv-x="1478" d="M0 160v1196q0 78 53 125q47 39 117 39q66 0 111 -37q51 -43 51 -113v-434h653v420q0 76 47 119t111 43q70 0 119 -48q53 -55 53 -147v-1147q0 -84 -48 -130t-118 -46q-66 0 -115 43t-49 117v463h-653v-463q0 -76 -49.5 -119t-118.5 -43q-66 0 -115 43t-49 119z" />
<glyph unicode="I" horiz-adv-x="493" d="M0 176v1163q0 84 53 136q47 43 117 43q66 0 113 -43t47 -119v-1180q0 -82 -49.5 -128t-114.5 -46q-68 0 -117 46t-49 128z" />
<glyph unicode="J" horiz-adv-x="1003" d="M6 276q0 57 37 96.5t96 39.5q43 0 92 -23q4 -2 86 -55q57 -37 91 -37q76 0 75 186v856q0 84 53.5 131.5t125.5 47.5t118 -43q55 -51 56 -136v-921q0 -219 -119 -338q-106 -106 -275 -107q-166 0 -309 101q-127 87 -127 202z" />
<glyph unicode="K" horiz-adv-x="1372" d="M0 162v1194q0 78 49 121t117 43q66 0 115 -43t49 -121v-420l520 518q61 61 139 62q74 0 129.5 -50.5t55.5 -117.5q0 -78 -74 -144l-418 -368l485 -508q82 -86 82 -166q0 -70 -57 -115t-131 -45q-88 0 -148 64l-567 604v-508q0 -76 -51 -119t-121 -43q-72 0 -123 43 t-51 119z" />
<glyph unicode="L" horiz-adv-x="976" d="M0 131v1219q0 80 55 127q49 43 121 43q70 0 122 -45t52 -123v-1022h400q66 0 103.5 -51.5t37.5 -118.5q0 -66 -37 -113t-104 -47h-603q-51 0 -99 40t-48 91z" />
<glyph unicode="M" horiz-adv-x="1923" d="M0 162q0 12 2 26l195 1117q16 100 82.5 157.5t146.5 57.5q162 0 223 -181l232 -686l249 686q33 86 96.5 132.5t137.5 46.5q78 0 137 -52q66 -59 82 -161l189 -1121q2 -18 2 -34q0 -70 -45.5 -112t-106.5 -42q-63 0 -111 41q-53 43 -67 123l-131 741l-232 -741 q-51 -160 -182 -160t-186 160l-252 725l-101 -674q-31 -215 -186 -215q-70 0 -122 48t-52 118z" />
<glyph unicode="N" horiz-adv-x="1478" d="M0 160v1196q0 166 131 166q102 0 201 -119l653 -766v733q0 70 53 111q47 37 113 37q68 0 116 -39t48 -109v-1227q0 -143 -123 -143q-117 0 -207 111l-653 807v-758q0 -76 -49.5 -118t-116.5 -42q-68 0 -117 43t-49 117z" />
<glyph unicode="O" horiz-adv-x="1628" d="M0 768q0 326 186 551q207 250 557 250q352 0 557 -246q182 -221 183 -545q0 -326 -185 -553q-207 -252 -555 -252q-352 0 -557 248q-186 225 -186 547zM365 768q0 -188 96 -319q104 -145 282 -146q231 0 332 242q47 115 47 230q0 110 -43 220q-94 242 -329 242 q-182 0 -289 -147q-96 -132 -96 -322z" />
<glyph unicode="P" horiz-adv-x="1212" d="M0 176v1210q0 49 43 91.5t90 42.5h467q248 0 387 -160q121 -141 121 -352q0 -209 -115 -361q-127 -164 -325 -164h-318v-311q0 -82 -55 -131q-47 -43 -117 -43q-72 0 -125 47t-53 131zM350 803h217q86 0 138 61q45 55 45 135q0 82 -49.5 142.5t-133.5 60.5h-217v-399z " />
<glyph unicode="Q" horiz-adv-x="1695" d="M0 776q0 326 186 545q211 248 578 248q311 0 520 -223q190 -205 215 -504q3 -39 3 -76q0 -259 -148 -467q43 -43 159 -156q49 -47 50 -106q0 -59 -46.5 -103.5t-105.5 -44.5q-51 0 -94 35l-184 152q-227 -100 -428 -101q-326 0 -525 250q-180 229 -180 551zM406 983 q-41 -112 -42 -217q0 -125 58 -242q107 -218 365 -217q28 0 59 2q-23 18 -68 72q-57 61 -57 131q0 59 43 102t104 43q72 0 138 -59q29 -23 77 -70q41 129 41 258q0 195 -94 314q-106 137 -315 137q-213 0 -309 -254z" />
<glyph unicode="R" horiz-adv-x="1275" d="M0 170v1216q0 41 37 87.5t78 46.5h567q170 0 293 -139.5t123 -315.5q0 -133 -80 -236q-90 -117 -268 -174l333 -387q55 -63 56 -135q0 -68 -47.5 -115t-114.5 -47q-98 0 -178 99l-453 553v-453q0 -90 -53 -142.5t-125 -52.5q-70 0 -119 50.5t-49 144.5zM346 885h254 q63 0 100 49q33 43 33 106q0 66 -33 111q-39 51 -100 51h-254v-317z" />
<glyph unicode="S" horiz-adv-x="1255" d="M0 229q0 61 46 103.5t128 42.5q68 0 152 -31q121 -45 227 -45q180 0 180 145q0 90 -180 162q-268 104 -330 150q-180 125 -180 346q0 219 178 350q160 117 385 117q143 0 262 -51q150 -68 150 -203q0 -66 -41 -112t-105 -46q-37 0 -77 19q-119 49 -232 49 q-158 0 -157 -125q0 -51 178 -111q236 -80 334 -151q178 -133 178 -363q0 -258 -174 -389q-152 -113 -400 -113q-180 0 -358 60q-78 27 -121 82t-43 114z" />
<glyph unicode="T" horiz-adv-x="1224" d="M0 1362q0 63 39 110.5t108 47.5h797q82 0 127 -48.5t45 -113.5q0 -63 -41 -107q-47 -49 -129 -49h-231v-1007q0 -94 -50.5 -145.5t-117.5 -51.5q-68 0 -117 49t-49 137v1018h-225q-74 0 -117 51q-39 43 -39 109z" />
<glyph unicode="U" horiz-adv-x="1460" d="M0 604v719q0 92 53 143.5t125 51.5q68 0 118 -47.5t50 -131.5v-751q0 -127 103 -207q92 -74 217 -74q117 0 194 66q86 72 86 198v752q0 92 58 147q49 47 120 48q72 0 123 -47.5t51 -131.5v-800q0 -260 -202 -418q-186 -145 -447 -146q-266 0 -446 154q-203 172 -203 475z " />
<glyph unicode="V" horiz-adv-x="1441" d="M0 1362q0 70 47 113t113 43q133 0 192 -148l301 -747l299 747q59 147 195 148q70 0 121 -44t51 -112q0 -37 -14 -74l-469 -1128q-68 -162 -177 -162t-176 162l-463 1112q-20 47 -20 90z" />
<glyph unicode="W" horiz-adv-x="2103" d="M0 1364q0 66 54.5 113t123.5 47q139 0 178 -168l183 -785l233 701q84 248 215 248q137 0 221 -265l215 -684l183 785q37 166 190 166q68 0 117 -42t49 -112q0 -23 -6 -45l-279 -1147q-23 -84 -85 -130t-140 -46q-162 0 -211 143l-254 742l-231 -709q-29 -86 -91.5 -132 t-138.5 -46t-133 45q-66 49 -86 133l-303 1151q-4 19 -4 37z" />
<glyph unicode="X" horiz-adv-x="1462" d="M0 154q0 88 72 184l360 491l-280 373q-59 80 -60 152q0 72 53.5 118t122.5 46q82 0 133 -66l248 -330l250 330q51 68 137 68q70 0 125.5 -48.5t55.5 -119.5q0 -63 -50 -131l-295 -400l426 -559q33 -43 33 -92q0 -68 -57 -120t-129 -52q-78 0 -127 65l-356 472l-343 -445 q-72 -94 -167 -94q-63 0 -107.5 44t-44.5 114z" />
<glyph unicode="Y" horiz-adv-x="1312" d="M0 1339q0 70 55.5 124.5t124.5 54.5q86 0 146 -86l270 -381l248 368q68 104 170 105q74 0 129 -51.5t55 -120.5q0 -51 -35 -97l-403 -553v-559q0 -68 -47 -105.5t-113 -37.5q-70 0 -119 41q-55 43 -55 119v542l-395 547q-31 41 -31 90z" />
<glyph unicode="Z" horiz-adv-x="1329" d="M0 176q0 59 33 105l684 921h-502q-76 0 -119 49t-43 115q0 61 39 107.5t107 46.5h733q100 0 162.5 -54.5t62.5 -132.5q0 -59 -41 -112l-670 -908h584q86 0 137 -49q45 -45 45 -110q0 -61 -44 -107.5t-121 -46.5h-848q-96 0 -152 55q-47 49 -47 121z" />
<glyph unicode="[" horiz-adv-x="761" d="M0 -195v1631q0 133 117 133h319q61 0 97 -38t36 -87q0 -51 -34.5 -86t-100.5 -37h-151v-1417h157q43 0 69 -39t26 -92q0 -117 -91 -117h-327q-55 0 -88 51q-29 43 -29 98z" />
<glyph unicode="\" horiz-adv-x="1144" d="M0 1473q0 49 36 87.5t85 38.5q82 0 141 -114l664 -1299q27 -49 26 -92q0 -53 -32.5 -86t-77.5 -33q-82 0 -131 95l-699 1349q-12 25 -12 54z" />
<glyph unicode="]" horiz-adv-x="761" d="M0 -221q0 -49 33 -86t92 -37h328q53 0 88 51q29 43 28 98v1631q0 133 -116 133h-349q-47 0 -74.5 -36t-27.5 -87q0 -49 27.5 -86t74.5 -39h183v-1417h-158q-61 0 -95 -37t-34 -88z" />
<glyph unicode="^" d="M262 735q0 23 10 43l365 707q47 90 123 90q96 0 162 -123l335 -631q14 -27 15 -57q0 -51 -34 -89t-79 -38q0FF15C0AA7" />
<glyph unicode="_" horiz-adv-x="1003" d="M-92 -205q0 23 25.5 42.5t64.5 19.5h1003q86 0 86 -54q0 -23 -16 -43t-33 -20h-1022q-108 0 -108 55z" />
<glyph unicode="`" horiz-adv-x="720" d="M0 1036q0 43 23 86l198 363q47 84 146 84q63 0 112 -35t49 -84q0 -23 -12 -45l-227 -453q-37 -74 -119 -73q-66 0 -118 45.5t-52 111.5z" />
<glyph unicode="a" horiz-adv-x="1277" d="M0 578q0 244 131 411q145 188 397 189q57 0 142 -39q74 -35 125 -80q41 119 159 119q63 0 110.5 -45.5t47.5 -124.5v-924q0 -53 -48 -82t-116 -29q-66 0 -115 29t-49 80q-127 -106 -274 -107q-240 0 -381 189q-129 170 -129 414zM319 584q0 -113 62 -195q68 -88 180 -88 q106 0 170 84q57 78 57 188q0 111 -61 192t-172 81q-113 0 -178 -82q-58 -71 -58 -180z" />
<glyph unicode="b" horiz-adv-x="1239" d="M0 113v1267q0 68 47 107q41 35 105 35q66 0 114.5 -38t48.5 -102v-290q94 82 295 82q238 0 377 -185q125 -166 125 -407q0 -246 -129 -416q-145 -190 -393 -191q-184 0 -275 127q0 -61 -47 -97t-110 -36q-66 0 -109 35q-49 39 -49 109zM313 584q0 -113 62 -195 q68 -90 180 -90q102 0 166 92q59 84 59 199q0 109 -55 180q-61 82 -174 82q-115 0 -180 -84q-58 -73 -58 -184z" />
<glyph unicode="c" horiz-adv-x="1077" d="M-6 561q0 244 137 420q150 193 391 193q250 0 343 -85t93 -169q0 -53 -36.5 -88t-81.5 -35q-18 0 -33 6q-129 53 -221 53q-125 0 -199 -94q-66 -84 -65 -203q0 -109 57 -182q63 -84 172 -84q88 0 248 61q20 8 41 8q49 0 85 -40.5t36 -98.5q0 -82 -78 -139 q-61 -45 -168 -78q-96 -31 -160 -31q-272 0 -426 183q-135 161 -135 403z" />
<glyph unicode="d" horiz-adv-x="1277" d="M2 594q0 240 125 401q141 182 391 183q160 0 260 -95v265q0 82 49.5 127t118.5 45q68 0 117 -45t49 -127v-1244q0 -63 -46 -98t-114 -35t-116 35q-55 37 -56 96q-135 -119 -280 -118q-229 0 -371 192q-127 174 -127 418zM326 578q0 -113 59 -191q66 -86 178 -86 q102 0 166 90q57 84 57 199q0 109 -53 180q-61 82 -170 82q-113 0 -178 -86q-59 -77 -59 -188z" />
<glyph unicode="e" horiz-adv-x="1265" d="M0 580q0 281 180 446q162 150 395 150q221 0 373 -138q168 -152 168 -409q0 -154 -102 -154h-647q55 -209 262 -209q74 0 147 29q66 25 98 57q47 49 103 49q53 0 92 -43t39 -104q0 -100 -109 -172q-160 -106 -360 -107q-256 0 -440 160q-199 175 -199 445zM358 711h435 q-25 92 -88 145q-55 47 -127 47q-74 0 -132 -49q-63 -51 -88 -143z" />
<glyph unicode="f" horiz-adv-x="946" d="M0 989q0 59 37 103.5t102 44.5h76v50v50q0 141 96 236q98 96 267 96q76 0 143 -56.5t67 -128.5q0 -63 -40 -81q-25 -12 -91 -13h-6q-51 0 -76 -6q-31 -8 -34 -45q0 2 0 -102q41 0 135 -2q70 0 110 -48q35 -43 35 -104q0 -59 -35.5 -102t-101.5 -45h-141v-682 q0 -72 -47 -113t-111 -41q-66 0 -109 41q-49 47 -49 129v666q-25 -2 -77 -2q-70 0 -113 49q-37 43 -37 106z" />
<glyph unicode="g" horiz-adv-x="1265" d="M0 565q0 248 127 420q143 193 387 193q184 0 266 -140q0 68 47 105t111 37q66 0 113 -35q49 -41 49 -107l2 -993q0 -248 -184 -393q-168 -131 -412 -131q-233 0 -406 121q-82 57 -82 143q0 59 36 104t79 45q25 0 43 -16q31 -25 131 -61q127 -49 230 -50q244 0 244 277 q0 11 -1 22q-41 -59 -135 -96q-84 -35 -166 -35q-225 0 -358 185q-121 165 -121 405zM330 557q0 -117 57 -197q61 -90 168 -90q106 0 168 86q55 80 55 193q0 117 -59.5 204t-163.5 87q-106 0 -168 -88q-57 -80 -57 -195z" />
<glyph unicode="h" horiz-adv-x="1173" d="M0 156v1210q0 72 53 115q47 39 115 39t116 -41t48 -115v-277q113 92 274 93q166 0 283 -95q129 -106 129 -282v-647q0 -74 -47 -115t-113 -41q-63 0 -110.5 40t-47.5 110v552q0 84 -63 136q-55 47 -135 47q-70 0 -117 -41q-53 -45 -53 -123v-565q0 -74 -49.5 -115 t-118.5 -41q-66 0 -115 41t-49 115z" />
<glyph unicode="i" horiz-adv-x="536" d="M0 1339q0 74 53 127.5t148 53.5q86 0 134 -54.5t48 -128.5q0 -72 -45 -123q-51 -55 -137 -55q-94 0 -150 58q-51 50 -51 122zM33 182v756q0 86 51 139q45 45 109 45q63 0 108 -45q47 -51 47 -139v-750q0 -90 -47 -139t-111 -49q-63 0 -110 48t-47 134z" />
<glyph unicode="j" horiz-adv-x="540" d="M0 1339q0 74 53 127.5t148 53.5q86 0 134 -54.5t48 -128.5q0 -72 -45 -123q-51 -55 -137 -55q-94 0 -150 58q-51 50 -51 122zM25 -328v1295q0 76 51 120q47 39 112 39q68 0 117 -41q51 -47 51 -124v-1289q0 -72 -50 -111.5t-118 -39.5t-112 37q-51 40 -51 114z" />
<glyph unicode="k" horiz-adv-x="1122" d="M0 184v1164q0 80 49 125t117 45t117 -45.5t49 -124.5l2 -562l336 336q53 53 123 54q68 0 119 -47.5t51 -108.5q0 -55 -45 -102l-265 -265l305 -374q43 -55 43 -117q0 -68 -45 -116t-108 -48q-82 0 -152 86l-362 455v-359q0 -84 -51.5 -133t-120.5 -49q-66 0 -111 45 q-51 51 -51 141z" />
<glyph unicode="l" horiz-adv-x="493" d="M0 174v1159q0 90 51 142q45 45 113 45t117 -46.5t49 -121.5v-1178q0 -84 -46 -130t-112 -46q-70 0 -121 48t-51 128z" />
<glyph unicode="m" horiz-adv-x="1798" d="M0 160v874q0 70 45 109q39 35 100 35q68 0 119 -39t51 -103q111 141 293 142q182 0 307 -142q117 139 336 140q158 0 265 -86q121 -96 120 -267v-653q0 -82 -48 -127t-115 -45q-70 0 -119 45q-55 47 -56 127v516q0 86 -52 137t-120 51q-59 0 -101 -45t-42 -131v-555 q0 -66 -50 -104.5t-116 -38.5q-68 0 -117 42t-49 120v540q0 78 -51 123q-43 41 -108 41q-66 0 -109 -41q-51 -45 -51 -123v-542q0 -76 -48 -118t-116 -42t-115 41q-53 45 -53 119z" />
<glyph unicode="n" horiz-adv-x="1177" d="M0 197v821q0 74 49 119q43 39 107 39q63 0 108 -39q49 -45 49 -119q82 158 301 158q160 0 277 -91q127 -1002BDE6DA69" />
<glyph unicode="o" horiz-adv-x="1255" d="M0 575q0 246 139 414q158 188 428 189q246 0 400 -197q141 -178 141 -426q0 -240 -139 -399q-158 -180 -443 -181q-244 0 -393 189q-133 167 -133 411zM328 580q0 -111 53 -187q61 -88 164 -88q115 0 182 82q61 76 61 182q0 109 -65 185q-74 86 -201 86q-90 0 -142 -77 t-52 -183z" />
<glyph unicode="p" horiz-adv-x="1251" d="M0 -305v1323q0 78 49 121q43 39 107 39q63 0 111 -39t48 -103q123 137 285 138q233 0 377 -197q131 -180 131 -428q0 -238 -125 -395q-137 -178 -383 -179q-145 0 -268 82v-376q0 -74 -51.5 -118t-120.5 -44q-66 0 -113 45t-47 131zM330 565q0 -113 61 -190 q66 -86 178 -86q104 0 166 84q53 74 53 184q0 115 -55 195q-61 88 -164 88q-113 0 -180 -86q-59 -76 -59 -189z" />
<glyph unicode="q" horiz-adv-x="1261" d="M0 571q0 244 123 414q139 188 371 189q166 0 284 -119q0 55 51.5 89t116.5 34q61 0 105.5 -32t44.5 -93v-1387q0 -70 -48.5 -107.5t-115.5 -37.5q-68 0 -115 37q-53 41 -53 108l-2 393q-125 -84 -270 -84q-233 0 -369 187q-123 167 -123 409zM311 575q0 -115 60 -194 q66 -90 176 -90q104 0 164 88q55 78 55 190q0 117 -55 197q-61 90 -164 90q-113 0 -176 -88q-60 -78 -60 -193z" />
<glyph unicode="r" horiz-adv-x="829" d="M0 141v877q0 78 45 119q39 37 100 37q66 0 115 -37q53 -43 53 -107q104 137 262 137q57 0 101.5 -62.5t44.5 -121.5q0 -88 -107 -135l-196 -74q-104 -53 -105 -158v-475q0 -78 -48 -123t-113 -45q-63 0 -105 41q-47 45 -47 127z" />
<glyph unicode="s" horiz-adv-x="1001" d="M0 203q0 57 30.5 99t84.5 42q33 0 69 -18q172 -80 260 -80q82 0 82 69q0 43 -131 97q-182 74 -245 118q-131 94 -132 238q0 193 129 305q119 102 297 103q168 0 310 -93q92 -59 92 -151q0 -51 -31 -88t-76 -37q-27 0 -55 14q-145 74 -254 74q-84 0 -84 -68 q0 -39 131 -104q176 -86 248 -148q131 -117 131 -278q0 -164 -129 -248q-113 -74 -293 -74q-215 0 -366 91q-68 41 -68 137z" />
<glyph unicode="t" horiz-adv-x="972" d="M0 983q0 63 35 110q33 44 89 44h5h115q0 55 -2 215q0 78 51 125q45 39 113 39q61 0 107 -38t46 -108v-233h133q78 0 125 -50q41 -43 41 -104q0 -59 -41 -100q-43 -47 -119 -47l-123 2v-674q0 -80 -49 -123t-116 -43q-68 0 -117 40t-49 109v691q-33 0 -103 -2q-3 0 -5 -1 q-64 0 -101 46q-35 41 -35 102z" />
<glyph unicode="u" horiz-adv-x="1175" d="M0 444v529q0 78 49 123q43 39 107 39q63 0 110 -43t47 -119v-494q0 -86 60 -137q53 -47 129 -47q74 0 127 48t53 136v477q0 84 49 131.5t119 47.5q68 0 117 -47.5t49 -131.5v-544q0 -256 -262 -379q-137 -64 -269 -65q-112 0 -221 46q-264 113 -264 430z" />
<glyph unicode="v" horiz-adv-x="1155" d="M0 985q0 72 45 115q39 37 100 37q137 0 187 -138l180 -518l170 502q53 158 190 158q86 0 127 -74q23 -38 23 -86q0 -52 -27 -115l-313 -755q-45 -111 -168 -111q-119 0 -166 111l-315 737q-33 76 -33 137z" />
<glyph unicode="w" horiz-adv-x="1769" d="M0 1010q0 55 42 93t97 38q121 0 174 -156l168 -485l170 452q70 186 172 187q98 0 158 -170l170 -486l147 518q20 66 76 105q49 35 111 35q82 0 126 -60q24 -32 24 -78q0 -38 -17 -85l-270 -742q-66 -176 -203 -176q-63 0 -117.5 44t-79.5 118l-131 409l-149 -426 q-51 -145 -189 -145q-135 0 -180 129l-291 838q-8 23 -8 43z" />
<glyph unicode="x" horiz-adv-x="1202" d="M0 182q0 61 47 113l279 309l-209 211q-76 76 -76 160q0 70 47 118t113 48q90 0 164 -90l165 -199l172 207q55 63 140 63q70 0 121 -44t51 -109q0 -82 -80 -164l-205 -217l275 -293q55 -59 55 -123q0 -70 -62.5 -121t-130.5 -51q-51 0 -78 33l-258 301l-251 -285 q-43 -49 -103 -49q-68 0 -122 55t-54 127z" />
<glyph unicode="y" horiz-adv-x="1150" d="M0 979q0 74 45 117q39 41 100 41q127 0 177 -140l174 -497l192 479q63 158 191 158q57 0 97 -43t40 -117q0 -61 -29 -131l-491 -1190q-57 -139 -164 -139q-59 0 -105.5 46t-46.5 109q0 29 10 56q53 143 140 358q-129 324 -305 776q-25 64 -25 117z" />
<glyph unicode="z" horiz-adv-x="1132" d="M0 981q0 63 47 109.5t133 46.5h672q68 0 105.5 -37t37.5 -88q0 -43 -26 -80l-486 -635h369q68 0 105.5 -44t37.5 -106q0 -59 -37 -100q-39 -47 -106 -47h-766q-39 0 -61.5 39t-22.5 88q0 45 18 72l463 618h-297q-88 0 -137 49t-49 115z" />
<glyph unicode="{" horiz-adv-x="933" d="M0 604q0 78 47 96q59 18 117.5 40t58.5 132q0 47 -16.5 175.5t-16.5 195.5q0 166 80 246q100 100 338 86q61 -4 101 -39q33 -31 32 -74q0 -90 -120 -96q-133 -4 -134 -158q0 -45 15.5 -156.5t15.5 -166.5q0 -225 -205 -262q207 -70 207 -304q0 -57 -14 -162.5t-14 -148.5 q0 -141 123.5 -152.5t123.5 -86.5q0 -33 -26.5 -63t-61.5 -34q-59 -6 -108 -6q-203 0 -283 98q-61 78 -61 236q0 47 7 145.5t7 143.5q0 98 -25 157q-27 68 -114 76q-74 6 -74 82z" />
<glyph unicode="|" horiz-adv-x="458" d="M0 -127v1628q0 80 41 123t96 43q51 0 90 -39t39 -108v-1663q0 -70 -39 -109t-92 -39q-55 0 -92 41q-43 45 -43 123z" />
<glyph unicode="}" horiz-adv-x="933" d="M0 1462q0 -90 121 -96q133 -4 133 -158q0 -45 -15.5 -156.5t-15.5 -166.5q0 -225 205 -262q-205 -70 -205 -304q0 -57 13.5 -162.5t13.5 -148.5q0 -141 -124 -152.5t-124 -86.5q0 -33 26.5 -63t61.5 -34q59 -6 109 -6q203 0 282 98q61 78 62 236q0 47 -7.5 145.5 t-7.5 143.5q0 98 25 157q27 68 115 76q74 6 73 82q0 78 -47 96q-57 18 -116.5 40t-59.5 132q0 47 16.5 175.5t16.5 195.5q0 166 -80 246q-98 100 -338 86q-61 -4 -97 -37t-36 -76z" />
<glyph unicode="~" horiz-adv-x="1288" d="M0 545q0 117 92 205t209 88q72 0 251 -76t230 -76q41 0 118 60.5t108 60.5q88 0 88 -123q0 -109 -81 -199t-190 -90q-102 0 -276 75t-223 75q-51 0 -131 -67.5t-109 -67.5q-43 0 -68 47q-18 39 -18 88z" />
<glyph unicode="&#xa3;" horiz-adv-x="1495" d="M0 768q0 106 78 143q53 25 170 25q-33 106 -33 199q0 199 146.5 308t404.5 109q356 0 518 -299q16 -31 16 -65q0 -59 -46 -105.5t-105 -46.5q-47 0 -84 33q-113 106 -152 129q-57 37 -141 37q-98 0 -160.5 -53.5t-62.5 -130.5q0 -68 51 -133q23 0 74 3t78 3 q203 0 202 -158q0 -98 -57 -135q-43 -29 -135 -29q-20 0 -64 2h-65q14 -25 14 -57q0 -84 -80 -213h568q82 0 125 -50.5t43 -119.5q0 -66 -36 -113t-100 -47h-852q-106 0 -144 39t-38 156q2 29 47 94q61 88 82 131q43 90 37 180q-150 -2 -199 14q-100 31 -100 150z" />
<glyph unicode="&#xa4;" horiz-adv-x="1507" d="M0 1532q0 59 41 102t102 43q82 0 158 -78l166 -163q92 45 201 45q100 0 184 -41l162 159q76 78 157 78q61 0D7C572AA6" />
<glyph unicode="&#xa5;" horiz-adv-x="1439" d="M0 1374q0 68 60.5 125t134.5 57q76 0 124 -71l304 -434l280 417q53 80 144 80q76 0 138 -53t62 -121q0 -37 -24 -71l-222 -304h60q63 0 100 -46t37 -107t-33 -103q-39 -47 -104 -47h-273v-82h189q66 0 102.5 -45t36.5 -108q0 -59 -35 -101q-37 -47 -104 -47h-189v-194 q0 -61 -48 -97t-115 -36q-70 0 -117 37q-55 41 -55 114v176h-203q-63 0 -103 47q-33 41 -32 103q0 61 35.5 106t99.5 45h203v82h-285q-63 0 -102 47q-35 41 -35 103q0 61 36.5 107t100.5 46h74l-219 304q-23 32 -23 71z" />
<glyph unicode="&#xa6;" horiz-adv-x="440" d="M0 137v1364q0 78 38 122t87 44q51 0 86 -41q37 -47 37 -125v-1382q0 -61 -39 -101.5t-90 -40.5q-49 0 -84 41t-35 119z" />
<glyph unicode="&#xa7;" horiz-adv-x="1239" d="M0 657q0 104 53 172q8 10 133 121q-94 152 -94 271q0 158 127 252q115 86 287 86q264 0 414 -181q31 -37 30 -88q0 -55 -33.5 -97t-82.5 -42q-39 0 -77 29.5t-118 64.5q-98 45 -160 45q-82 0 -82 -78q0 -76 168 -168q258 -141 312 -184q170 -135 170 -313 q0 -184 -195 -328q117 -96 117 -242q0 -178 -135 -276q-121 -86 -304 -86q-131 0 -245 45q-121 49 -183 131q-41 57 -41 111q0 53 37 89t88 36q59 0 109 -50q33 -33 116 -63.5t148 -30.5q94 0 94 66q0 100 -170 196q-285 160 -313 183q-170 134 -170 329zM283 670 q0 -55 69 -99q92 -63 312 -188q6 -4 14 -4q29 0 53 51q20 43 21 82q0 104 -177 199q-102 47 -206 92q-86 -72 -86 -133z" />
<glyph unicode="&#xa8;" horiz-adv-x="1005" d="M0 1417q0 70 43 119t119 49t123 -55q41 -49 41 -119q0 -66 -39 -111q-45 -49 -125 -49q-76 0 -119 49t-43 117zM494 1415q0 63 40.5 108.5t116.5 45.5t119 -46t43 -110q0 -63 -43 -110.5t-117 -47.5q-76 0 -121 52q-38 45 -38 108z" />
<glyph unicode="&#xa9;" horiz-adv-x="1759" d="M0 778q0 324 197 545q217 246 589 246q377 0 590 -240q190 -211 191 -530q0 -330 -197 -568q-217 -260 -567 -260q-379 0 -602 252q-201 229 -201 555zM236 776q0 -240 141 -405q158 -184 426 -185q248 0 395 185q135 168 135 405q0 236 -135 398q-152 180 -412 180 t-413 -180q-137 -162 -137 -398zM395 788q0 184 103 310q117 141 317 141q135 0 232 -65q109 -76 108 -205q0 -80 -86 -80q-61 0 -107.5 74.5t-136.5 74.5q-98 0 -153 -75q-49 -68 -49 -168q0 -106 53 -185q57 -84 153 -84q76 0 133.5 86t127.5 86q33 0 51 -26.5t18 -59.5 q0 -135 -112 -217q-100 -72 -240 -71q-193 0 -307 145q-105 131 -105 319z" />
<glyph unicode="&#xaa;" horiz-adv-x="747" d="M0 1221q0 123 66 206q74 94 198 95q68 0 133 -58q20 61 82 62q76 0 76 -88v-443q0 -78 -88 -77q-72 0 -76 53q-63 -53 -137 -53q-119 0 -191 94q-63 86 -63 209zM160 1223q0 -57 32.5 -100.5t88.5 -43.5q53 0 82.5 41t29.5 97q0 57 -30.5 99t-86.5 42q-55 0 -85.5 -40 t-30.5 -95z" />
<glyph unicode="&#xab;" horiz-adv-x="1230" d="M0 618q0 86 106 173q104 72 209 145q39 27 76 27q49 0 81 -43t32 -99q0 -70 -51 -100l-187 -117l203 -135q37 -25 37 -76t-37 -95t-90 -44q-41 0 -80 31l-231 184q-68 79 -68 149zM530 590q0 84 107 178q35 29 211 150q41 29 78 28q49 0 80.5 -43t31.5 -96 q0 -72 -53 -105l-184 -114l200 -135q37 -27 37 -76q0 -51 -36.5 -95t-90.5 -44q-41 0 -80 30l-231 185q-70 69 -70 137z" />
<glyph unicode="&#xac;" horiz-adv-x="1466" d="M0 600q0 63 36 108.5t101 45.5h1002q135 0 135 -187v-344q0 -66 -44 -101.5t-106 -35.5q-61 0 -106 37t-45 100v230h-836q-66 0 -101.5 44t-35.5 103z" />
<glyph unicode="&#xad;" horiz-adv-x="0" />
<glyph unicode="&#x2212;" horiz-adv-x="0" />
<glyph unicode="&#xae;" horiz-adv-x="1777" d="M0 764q0 324 201 553q221 252 583 252q375 0 598 -256q203 -231 203 -559q0 -313 -190 -529q-211 -238 -578 -237q-393 0 -616 241q-201 218 -201 535zM250 754q0 -236 133 -394q147 -176 405 -176q266 0 416 174q131 154 131 390q0 246 -139 426q-154 197 -395 196 q-254 0 -410 -194q-141 -176 -141 -422zM487 483v623q0 49 17.5 65.5t62.5 16.5h351q111 0 174 -66.5t63 -163.5q0 -184 -190 -272l153 -217q10 -20 10 -39q0 -33 -29.5 -53.5t-68.5 -20.5q-45 0 -65 29l-230 317h-67v-233q0 -121 -86 -121q-37 0 -66 36t-29 99zM668 852 h166q47 0 73.5 27.5t26.5 64.5q0 92 -100 92h-166v-184z" />
<glyph unicode="&#xaf;" horiz-adv-x="1372" d="M0 1677q0 23 25.5 42.5t64.5 19.5h1004q86 0 86 -53q0 -23 -16.5 -43.5t-33.5 -20.5h-1021q-109 0 -109 55z" />
<glyph unicode="&#xb0;" horiz-adv-x="940" d="M0 1221q0 158 88 264q100 121 270 121q188 0 295 -119q94 -106 95 -264q0 -162 -97 -279q-106 -127 -280 -127t-277 127q-94 115 -94 277zM205 1196q0 -68 39 -113q41 -51 114 -51q86 0 136 51q43 43 43 111q0 72 -46.5 125t-123.5 53q-76 0 -119 -52t-43 -124z" />
<glyph unicode="&#xb1;" d="M162 150q0 61 35.5 107t99.5 46h913q66 0 103 -46t37 -107t-37 -104.5t-103 -43.5h-913q-63 0 -99 44.5t-36 103.5zM164 942q0 61 36 106.5t101 45.5h313v317q0 66 45.5 101.5t106.5 35.5t106.5 -35.5t45.5 -101.5v-317h317q66 0 101.5 -45t35.5 -107q0 -59 -36 -104 t-101 -45h-317v-316q0 -66 -45.5 -101.5t-106.5 -35.5t-106.5 36t-45.5 101v316h-313q-66 0 -104 47q-33 41 -33 102z" />
<glyph unicode="&#xb2;" horiz-adv-x="714" d="M0 815q0 51 61 111q256 238 256 360q0 57 -73 57q-35 0 -53.5 -37.5t-34.5 -74.5q-27 -49 -76 -49q-35 0 -57.5 27.5t-16.5 70.5q20 104 86 168.5t162 64.5q106 0 177 -66.5t71 -170.5q0 -102 -82 -207q-80 -86 -158 -170h199q61 0 61 -82q0 -74 -61 -74h-391 q-70 0 -70 72z" />
<glyph unicode="&#xb3;" horiz-adv-x="722" d="M0 924q0 39 22.5 64.5t53.5 25.5q37 0 65 -31q23 -29 45 -55q31 -31 76 -31q39 0 62.5 26.5t23.5 61.5q0 74 -76 74q-45 0 -77.5 26.5t-32.5 61.5q0 63 104 86q68 14 56 63q-14 59 -58 60q-53 0 -133 -84q-14 -16 -35 -17q-29 0 -53.5 26t-24.5 62q0 29 19 60 q74 115 227 115q102 0 163.5 -61.5t61.5 -143.5q0 -94 -75 -156q117 -66 116 -186q0 -96 -73.5 -170t-184.5 -74q-80 0 -155 39q-86 45 -109 115q-8 23 -8 43z" />
<glyph unicode="&#xb4;" horiz-adv-x="823" d="M0 1270q0 109 70 137l315 137q47 20 90 21q70 0 113 -49.5t43 -110.5q0 -86 -76 -115l-420 -155q-20 -6 -37 -7q-45 0 -71.5 42.5t-26.5 99.5z" />
<glyph unicode="&#xb5;" horiz-adv-x="1179" d="M0 -305v1266q0 78 55 126q49 47 119 48q66 0 112 -47.5t46 -135.5v-526q0 -78 49 -119q41 -37 108 -37q76 0 137.5 48.5t61.5 123.5v512q0 88 49 138q43 45 109 45q70 0 121 -49.5t51 -133.5l-2 -821q0 -74 -49 -117t-115 -43q-59 0 -102 39t-43 113q-76 -135 -279 -135 q-47 0 -90 10v-270q0 -100 -57 -160q-49 -51 -121 -51q-66 0 -113 47t-47 129z" />
<glyph unicode="&#xb6;" horiz-adv-x="1241" d="M0 1067q0 180 141 307q158 143 426 144h482v-154h-117v-1356h-156v1356h-176v-1356h-154v678h-4q-209 0 -331 117q-111 106 -111 264zM88 989v228h47l68 -195l69 195h45v-228h-28v191l-72 -191h-29l-71 195v-195h-29zM340 1077q0 90 104 90q31 0 68 -8v-182 q0 -59 -80 -59q-33 0 -67 10l-3 22q45 -10 66 -10q51 0 51 43v45q-14 -35 -61 -35q-78 0 -78 84zM371 1075q0 -61 53 -61q59 0 59 61v66q-20 4 -37 4q-75 0 -75 -70z" />
<glyph unicode="&#xb7;" horiz-adv-x="575" d="M0 1016q0 78 49 129q57 59 152 59q86 0 137 -59q45 -53 45 -131t-45 -131q-51 -59 -137 -60q-94 0 -150 62q-51 53 -51 131z" />
<glyph unicode="&#xb9;" d="M455 1366q0 61 36.5 107.5t104.5 46.5h362q37 0 79 -41t42 -74v-1219q0 -100 -51 -155.5t-121 -55.5q-66 00C8CB99A41" />
<glyph unicode="&#xba;" horiz-adv-x="1255" d="M0 575q0 246 139 414q158 188 428 189q246 0 400 -197q141 -178 141 -426q0 -240 -139 -399q-158 -180 -443 -181q-244 0 -393 189q-133 167 -133 411zM328 580q0 -111 53 -187q61 -88 164 -88q115 0 182 82q61 76 61 182q0 109 -65 185q-74 86 -201 86q-90 0 -142 -77 t-52 -183z" />
<glyph unicode="&#xbb;" horiz-adv-x="1230" d="M0 377q0 -51 38 -95t89 -44q41 0 80 30l231 185q70 70 70 137q0 84 -107 178q-35 29 -211 150q-39 29 -75 28q-49 0 -81 -43t-32 -96q0 -72 51 -105l185 -114l-201 -135q-37 -27 -37 -76zM535 393q0 -51 36.5 -95t87.5 -44q41 0 82 31l232 184q66 80 65 149 q0 86 -104 173q-104 72 -211 145q-37 27 -74 27q-49 0 -81.5 -43t-32.5 -99q0 -70 53 -100l186 -117l-203 -135q-36 -25 -36 -76z" />
<glyph unicode="&#xbc;" horiz-adv-x="0" d="M53 498q0 55 23 90l491 735q133 199 312 199q104 0 173.5 -73t69.5 -194v-602h88q86 0 138 -51q45 -45 45 02E2ED2AF6" />
<glyph unicode="&#xbd;" horiz-adv-x="1177" d="M0 1477q0 84 63 84h181q18 0 39.5 -20.5t21.5 -37.5v-610q0 -45 -26.5 -72.5t-59.5 -27.5q-82 0 -82 118v492h-76q-61 4 -61 74zM182 444q0 23 13 48l333 632q25 43 64 43q61 0 61 -59q0 -16 -8 -33l-350 -665q-16 -33 -49 -33q-64 -1 -64 67zM465 115q0 51 61 110 q256 238 256 361q0 57 -73 57q-35 0 -54.5 -38t-36.5 -75q-25 -49 -75 -49q-35 0 -57.5 28t-14.5 71q18 104 85 168.5t163 64.5q104 0 176 -66.5t72 -171.5q0 -102 -84 -206q-78 -86 -158 -170h199q61 0 61 -82q0 -74 -61 -74h-392q-67 0 -67 72z" />
<glyph unicode="&#xbe;" horiz-adv-x="0" d="M53 498q0 55 23 90l491 735q133 199 312 199q104 0 173.5 -73t69.5 -194v-602h88q86 0 138 -51q45 -45 45 -110q0 -63 -41 -107q-49 -49 -129 -49q-70 -2 -101 -2v-160q0 -82 -49 -129t-117 -47t-116.5 47t-48.5 133l2 156h-600q-70 0 -107 53q-33 45 -33 111zM473 653 h320v488zM233 367q0 76 47.5 131t106.5 55q66 0 111 -70q55 -88 100 -123q63 -47 164 -47q78 0 127 52q43 45 43 108q0 57 -39 98t-113 41q-96 0 -149 56q-49 49 -49 123t51 129t139 55q53 0 98 32.5t45 79.5q0 10 -4 23q-41 145 -157 145q-72 0 -149 -50t-122 -120 q-41 -61 -100 -61q-53 0 -93 47t-40 117q0 78 55 153q94 129 198.5 177.5t284.5 48.5q201 0 322 -131q111 -119 111 -289q0 -209 -158 -336q238 -133 237 -369q0 -184 -145 -323q-152 -147 -375 -148q-154 0 -288 68q-150 76 -228 213q-31 56 -31 115z" />
<glyph unicode="&#xc0;" horiz-adv-x="1472" d="M485 1849q0 43 23 86l198 363q47 84 146 84q63 0 112 -35t49 -84q0 -23 -12 -45l-227 -453q-37 -74 -119 -73q-66 0 -118 45.5t-52 111.5zM0 127q0 27 10 53l406 1143q72 197 239 197q168 0 244 -197l438 -1133q12 -35 13 -65q0 -59 -43 -93t-105 -34q-117 0 -162 100 q-35 70 -90 203h-567q-16 -61 -72 -197q-39 -111 -155 -110q-61 0 -108.5 37t-47.5 96zM481 623h369l-182 501z" />
<glyph unicode="&#xc1;" horiz-adv-x="1472" d="M539 1833q0 109 70 137l315 137q47 20 90 21q70 0 113 -49.5t43 -110.5q0 -86 -76 -115l-420 -155q-20 -6 -37 -7q-45 0 -71.5 42.5t-26.5 99.5zM0 127q0 27 10 53l406 1143q72 197 239 197q168 0 244 -197l438 -1133q12 -35 13 -65q0 -59 -43 -93t-105 -34 q-117 0 -162 100q-35 70 -90 203h-567q-16 -61 -72 -197q-39 -111 -155 -110q-61 0 -108.5 37t-47.5 96zM481 623h369l-182 501z" />
<glyph unicode="&#xc2;" horiz-adv-x="1472" d="M152 1774q0 14 8 30l365 707q47 90 123 90q98 0 161 -123l336 -631q12 -25 13 -47q0 -45 -37 -75.5t-86 -30.5q-84 0 -127 86l-246 483l-270 -500q-39 -72 -121 -71q-47 0 -83 24.5t-36 57.5zM0 127q0 27 10 53l406 1143q72 197 239 197q168 0 244 -197l438 -1133 q12 -35 13 -65q0 -59 -43 -93t-105 -34q-117 0 -162 100q-35 70 -90 203h-567q-16 -61 -72 -197q-39 -111 -155 -110q-61 0 -108.5 37t-47.5 96zM481 623h369l-182 501z" />
<glyph unicode="&#xc3;" horiz-adv-x="1472" d="M106 1841q0 117 92 205t209 88q72 0 251 -76t230 -76q41 0 118 60.5t108 60.5q88 0 88 -123q0 -109 -81 -199t-190 -90q-102 0 -276 75t-223 75q-51 0 -131 -67.5t-109 -67.5q-43 0 -68 47q-18 39 -18 88zM0 127q0 27 10 53l406 1143q72 197 239 197q168 0 244 -197 l438 -1133q12 -35 13 -65q0 -59 -43 -93t-105 -34q-117 0 -162 100q-35 70 -90 203h-567q-16 -61 -72 -197q-39 -111 -155 -110q-61 0 -108.5 37t-47.5 96zM481 623h369l-182 501z" />
<glyph unicode="&#xc4;" horiz-adv-x="1472" d="M250 1857q0 70 43 119t119 49t123 -55q41 -49 41 -119q0 -66 -39 -111q-45 -49 -125 -49q-76 0 -119 49t-43 117zM744 1855q0 63 40.5 108.5t116.5 45.5t119 -46t43 -110q0 -63 -43 -110.5t-117 -47.5q-76 0 -121 52q-38 45 -38 108zM0 127q0 27 10 53l406 1143 q72 197 239 197q168 0 244 -197l438 -1133q12 -35 13 -65q0 -59 -43 -93t-105 -34q-117 0 -162 100q-35 70 -90 203h-567q-16 -61 -72 -197q-39 -111 -155 -110q-61 0 -108.5 37t-47.5 96zM481 623h369l-182 501z" />
<glyph unicode="&#xc5;" horiz-adv-x="1472" d="M283 1946q0 158 88 264q100 121 270 121q188 0 295 -119q94 -106 95 -264q0 -162 -97 -279q-106 -127 -280 -127t-277 127q-94 115 -94 277zM488 1921q0 -68 39 -113q41 -51 114 -51q86 0 136 51q43 43 43 111q0 72 -46.5 125t-123.5 53q-76 0 -119 -52t-43 -124zM0 127 q0 27 10 53l406 1143q72 197 239 197q168 0 244 -197l438 -1133q12 -35 13 -65q0 -59 -43 -93t-105 -34q-117 0 -162 100q-35 70 -90 203h-567q-16 -61 -72 -197q-39 -111 -155 -110q-61 0 -108.5 37t-47.5 96zM481 623h369l-182 501z" />
<glyph unicode="&#xc8;" horiz-adv-x="989" d="M254 1849q0 43 23 86l198 363q47 84 146 84q63 0 112 -35t49 -84q0 -23 -12 -45l-227 -453q-37 -74 -119 -73q-66 0 -118 45.5t-52 111.5zM0 115v1255q0 66 42 108t105 42h553q74 0 119 -58q39 -51 39 -123q0 -63 -31 -104q-35 -47 -96 -47h-399v-293h368q61 0 96 -49 t35 -115q0 -61 -28 -102q-33 -47 -88 -47h-383v-269h368q80 0 125 -53q41 -45 41 -113q0 -59 -32.5 -103t-83.5 -44h-633q-37 0 -77 38t-40 77z" />
<glyph unicode="&#xc9;" horiz-adv-x="989" d="M307 1833q0 109 70 137l315 137q47 20 90 21q70 0 113 -49.5t43 -110.5q0 -86 -76 -115l-420 -155q-20 -6 -37 -7q-45 0 -71.5 42.5t-26.5 99.5zM0 115v1255q0 66 42 108t105 42h553q74 0 119 -58q39 -51 39 -123q0 -63 -31 -104q-35 -47 -96 -47h-399v-293h368 q61 0 96 -49t35 -115q0 -61 -28 -102q-33 -47 -88 -47h-383v-269h368q80 0 125 -53q41 -45 41 -113q0 -59 -32.5 -103t-83.5 -44h-633q-37 0 -77 38t-40 77z" />
<glyph unicode="&#xca;" horiz-adv-x="989" d="M-78 1774q0 14 8 30l365 707q47 90 123 90q98 0 161 -123l336 -631q12 -25 13 -47q0 -45 -37 -75.5t-86 -30.5q-84 0 -127 86l-246 483l-270 -500q-39 -72 -121 -71q-47 0 -83 24.5t-36 57.5zM0 115v1255q0 66 42 108t105 42h553q74 0 119 -58q39 -51 39 -123 q0 -63 -31 -104q-35 -47 -96 -47h-399v-293h368q61 0 96 -49t35 -115q0 -61 -28 -102q-33 -47 -88 -47h-383v-269h368q80 0 125 -53q41 -45 41 -113q0 -59 -32.5 -103t-83.5 -44h-633q-37 0 -77 38t-40 77z" />
<glyph unicode="&#xcb;" horiz-adv-x="989" d="M16 1857q0 70 43 119t119 49t123 -55q41 -49 41 -119q0 -66 -39 -111q-45 -49 -125 -49q-76 0 -119 49t-43 117zM510 1855q0 63 40.5 108.5t116.5 45.5t119 -46t43 -110q0 -63 -43 -110.5t-117 -47.5q-76 0 -121 52q-38 45 -38 108zM0 115v1255q0 66 42 108t105 42h553 q74 0 119 -58q39 -51 39 -123q0 -63 -31 -104q-35 -47 -96 -47h-399v-293h368q61 0 96 -49t35 -115q0 -61 -28 -102q-33 -47 -88 -47h-383v-269h368q80 0 125 -53q41 -45 41 -113q0 -59 -32.5 -103t-83.5 -44h-633q-37 0 -77 38t-40 77z" />
<glyph unicode="&#xcc;" horiz-adv-x="493" d="M0 1849q0 43 23 86l198 363q47 84 146 84q63 0 112 -35t49 -84q0 -23 -12 -45l-227 -453q-37 -74 -119 -73q-66 0 -118 45.5t-52 111.5zM0 176v1163q0 84 53 136q47 43 117 43q66 0 113 -43t47 -119v-1180q0 -82 -49.5 -128t-114.5 -46q-68 0 -117 46t-49 128z" />
<glyph unicode="&#xcd;" horiz-adv-x="493" d="M53 1833q0 109 70 137l315 137q47 20 90 21q70 0 113 -49.5t43 -110.5q0 -86 -76 -115l-420 -155q-20 -6 -37 -7q-45 0 -71.5 42.5t-26.5 99.5zM0 176v1163q0 84 53 136q47 43 117 43q66 0 113 -43t47 -119v-1180q0 -82 -49.5 -128t-114.5 -46q-68 0 -117 46t-49 128z " />
<glyph unicode="&#xce;" horiz-adv-x="493" d="M-332 1774q0 14 8 30l365 707q47 90 123 90q98 0 161 -123l336 -631q12 -25 13 -47q0 -45 -37 -75.5t-86 -30.5q-84 0 -127 86l-246 483l-270 -500q-39 -72 -121 -71q-47 0 -83 24.5t-36 57.5zM0 176v1163q0 84 53 136q47 43 117 43q66 0 113 -43t47 -119v-1180 q0 -82 -49.5 -128t-114.5 -46q-68 0 -117 46t-49 128z" />
<glyph unicode="&#xcf;" horiz-adv-x="493" d="M-238 1857q0 70 43 119t119 49t123 -55q41 -49 41 -119q0 -66 -39 -111q-45 -49 -125 -49q-76 0 -119 49t-43 117zM256 1855q0 63 40.5 108.5t116.5 45.5t119 -46t43 -110q0 -63 -43 -110.5t-117 -47.5q-76 0 -121 52q-38 45 -38 108zM0 176v1163q0 84 53 136 q47 43 117 43q66 0 113 -43t47 -119v-1180q0 -82 -49.5 -128t-114.5 -46q-68 0 -117 46t-49 128z" />
<glyph unicode="&#xd1;" horiz-adv-x="1478" d="M-418 1841q0 117 92 205t209 88q72 0 251 -76t230 -76q41 0 118 60.5t108 60.5q88 0 88 -123q0 -109 -81 -199t-190 -90q-102 0 -276 75t-223 75q-51 0 -131 -67.5t-109 -67.5q-43 0 -68 47q-18 39 -18 88zM0 160v1196q0 166 131 166q102 0 201 -119l653 -766v733 q0 70 53 111q47 37 113 37q68 0 116 -39t48 -109v-1227q0 -143 -123 -143q-117 0 -207 111l-653 807v-758q0 -76 -49.5 -118t-116.5 -42q-68 0 -117 43t-49 117z" />
<glyph unicode="&#xd2;" horiz-adv-x="1458" d="M0 881q0 260 158 440q176 199 475 199t475 -199q158 -180 158 -440t-158 -441q-176 -201 -475 -200q-299 0 -475 200q-158 181 -158 441z" />
<glyph unicode="&#xd3;" horiz-adv-x="1628" d="M627 1833q0 109 70 137l315 137q47 20 90 21q70 0 113 -49.5t43 -110.5q0 -86 -76 -115l-420 -155q-20 -6 -37 -7q-45 0 -71.5 42.5t-26.5 99.5zM0 768q0 326 186 551q207 250 557 250q352 0 557 -246q182 -221 183 -545q0 -326 -185 -553q-207 -252 -555 -252 q-352 0 -557 248q-186 225 -186 547zM365 768q0 -188 96 -319q104 -145 282 -146q231 0 332 242q47 115 47 230q0 110 -43 220q-94 242 -329 242q-182 0 -289 -147q-96 -132 -96 -322z" />
<glyph unicode="&#xd4;" horiz-adv-x="1628" d="M242 1774q0 14 8 30l365 707q47 90 123 90q98 0 161 -123l336 -631q12 -25 13 -47q0 -45 -37 -75.5t-86 -30.5q-84 0 -127 86l-246 483l-270 -500q-39 -72 -121 -71q-47 0 -83 24.5t-36 57.5zM0 768q0 326 186 551q207 250 557 250q352 0 557 -246q182 -221 183 -545 q0 -326 -185 -553q-207 -252 -555 -252q-352 0 -557 248q-186 225 -186 547zM365 768q0 -188 96 -319q104 -145 282 -146q231 0 332 242q47 115 47 230q0 110 -43 220q-94 242 -329 242q-182 0 -289 -147q-96 -132 -96 -322z" />
<glyph unicode="&#xd5;" horiz-adv-x="1628" d="M197 1841q0 117 92 205t209 88q72 0 251 -76t230 -76q41 0 118 60.5t108 60.5q88 0 88 -123q0 -109 -81 -199t-190 -90q-102 0 -276 75t-223 75q-51 0 -131 -67.5t-109 -67.5q-43 0 -68 47q-18 39 -18 88zM0 768q0 326 186 551q207 250 557 250q352 0 557 -246 q182 -221 183 -545q0 -326 -185 -553q-207 -252 -555 -252q-352 0 -557 248q-186 225 -186 547zM365 768q0 -188 96 -319q104 -145 282 -146q231 0 332 242q47 115 47 230q0 110 -43 220q-94 242 -329 242q-182 0 -289 -147q-96 -132 -96 -322z" />
<glyph unicode="&#xd6;" horiz-adv-x="1628" d="M336 1857q0 70 43 119t119 49t123 -55q41 -49 41 -119q0 -66 -39 -111q-45 -49 -125 -49q-76 0 -119 49t-43 117zM830 1855q0 63 40.5 108.5t116.5 45.5t119 -46t43 -110q0 -63 -43 -110.5t-117 -47.5q-76 0 -121 52q-38 45 -38 108zM0 768q0 326 186 551 q207 250 557 250q352 0 557 -246q182 -221 183 -545q0 -326 -185 -553q-207 -252 -555 -252q-352 0 -557 248q-186 225 -186 547zM365 768q0 -188 96 -319q104 -145 282 -146q231 0 332 242q47 115 47 230q0 110 -43 220q-94 242 -329 242q-182 0 -289 -147 q-96 -132 -96 -322z" />
<glyph unicode="&#xd9;" horiz-adv-x="1460" d="M481 1849q0 43 23 86l198 363q47 84 146 84q63 0 112 -35t49 -84q0 -23 -12 -45l-227 -453q-37 -74 -119 -73q-66 0 -118 45.5t-52 111.5zM0 604v719q0 92 53 143.5t125 51.5q68 0 118 -47.5t50 -131.5v-751q0 -127 103 -207q92 -74 217 -74q117 0 194 66q86 72 86 198 v752q0 92 58 147q49 47 120 48q72 0 123 -47.5t51 -131.5v-800q0 -260 -202 -418q-186 -145 -447 -146q-266 0 -446 154q-203 172 -203 475z" />
<glyph unicode="&#xda;" horiz-adv-x="1460" d="M535 1833q0 109 70 137l315 137q47 20 90 21q70 0 113 -49.5t43 -110.5q0 -86 -76 -115l-420 -155q-20 -6 -37 -7q-45 0 -71.5 42.5t-26.5 99.5zM0 604v719q0 92 53 143.5t125 51.5q68 0 118 -47.5t50 -131.5v-751q0 -127 103 -207q92 -74 217 -74q117 0 194 66 q86 72 86 198v752q0 92 58 147q49 47 120 48q72 0 123 -47.5t51 -131.5v-800q0 -260 -202 -418q-186 -145 -447 -146q-266 0 -446 154q-203 172 -203 475z" />
<glyph unicode="&#xdb;" horiz-adv-x="1460" d="M147 1774q0 14 8 30l365 707q47 90 123 90q98 0 161 -123l336 -631q12 -25 13 -47q0 -45 -37 -75.5t-86 -30.5q-84 0 -127 86l-246 483l-270 -500q-39 -72 -121 -71q-47 0 -83 24.5t-36 57.5zM0 604v719q0 92 53 143.5t125 51.5q68 0 118 -47.5t50 -131.5v-751 q0 -127 103 -207q92 -74 217 -74q117 0 194 66q86 72 86 198v752q0 92 58 147q49 47 120 48q72 0 123 -47.5t51 -131.5v-800q0 -260 -202 -418q-186 -145 -447 -146q-266 0 -446 154q-203 172 -203 475z" />
<glyph unicode="&#xdc;" horiz-adv-x="1460" d="M246 1857q0 70 43 119t119 49t123 -55q41 -49 41 -119q0 -66 -39 -111q-45 -49 -125 -49q-76 0 -119 49t-43 117zM740 1855q0 63 40.5 108.5t116.5 45.5t119 -46t43 -110q0 -63 -43 -110.5t-117 -47.5q-76 0 -121 52q-38 45 -38 108zM0 604v719q0 92 53 143.5t125 51.5 q68 0 118 -47.5t50 -131.5v-751q0 -127 103 -207q92 -74 217 -74q117 0 194 66q86 72 86 198v752q0 92 58 147q49 47 120 48q72 0 123 -47.5t51 -131.5v-800q0 -260 -202 -418q-186 -145 -447 -146q-266 0 -446 154q-203 172 -203 475z" />
<glyph unicode="&#xdd;" horiz-adv-x="1312" d="M897 1833q0 109 70 137l315 137q47 20 90 21q70 0 113 -49.5t43 -110.5q0 -86 -76 -115l-420 -155q-20 -6 -37 -7q-45 0 -71.5 42.5t-26.5 99.5zM0 1339q0 70 55.5 124.5t124.5 54.5q86 0 146 -86l270 -381l248 368q68 104 170 105q74 0 129 -51.5t55 -120.5 q0 -51 -35 -97l-403 -553v-559q0 -68 -47 -105.5t-113 -37.5q-70 0 -119 41q-55 43 -55 119v542l-395 547q-31 41 -31 90z" />
<glyph unicode="&#xe0;" horiz-adv-x="1277" d="M571 1458q0 43 23 86l198 363q47 84 146 84q63 0 112 -35t49 -84q0 -23 -12 -45l-227 -453q-37 -74 -119 -73q-66 0 -118 45.5t-52 111.5zM0 578q0 244 131 411q145 188 397 189q57 0 142 -39q74 -35 125 -80q41 119 159 119q63 0 110.5 -45.5t47.5 -124.5v-924 q0 -53 -48 -82t-116 -29q-66 0 -115 29t-49 80q-127 -106 -274 -107q-240 0 -381 189q-129 170 -129 414zM319 584q0 -113 62 -195q68 -88 180 -88q106 0 170 84q57 78 57 188q0 111 -61 192t-172 81q-113 0 -178 -82q-58 -71 -58 -180z" />
<glyph unicode="&#xe1;" horiz-adv-x="1277" d="M625 1442q0 109 70 137l315 137q47 20 90 21q70 0 113 -49.5t43 -110.5q0 -86 -76 -115l-420 -155q-20 -6 -37 -7q-45 0 -71.5 42.5t-26.5 99.5zM0 578q0 244 131 411q145 188 397 189q57 0 142 -39q74 -35 125 -80q41 119 159 119q63 0 110.5 -45.5t47.5 -124.5v-924 q0 -53 -48 -82t-116 -29q-66 0 -115 29t-49 80q-127 -106 -274 -107q-240 0 -381 189q-129 170 -129 414zM319 584q0 -113 62 -195q68 -88 180 -88q106 0 170 84q57 78 57 188q0 111 -61 192t-172 81q-113 0 -178 -82q-58 -71 -58 -180z" />
<glyph unicode="&#xe2;" horiz-adv-x="1277" d="M238 1383q0 14 8 30l365 707q47 90 123 90q98 0 161 -123l336 -631q12 -25 13 -47q0 -45 -37 -75.5t-86 -30.5q-84 0 -127 86l-246 483l-270 -500q-39 -72 -121 -71q-47 0 -83 24.5t-36 57.5zM0 578q0 244 131 411q145 188 397 189q57 0 142 -39q74 -35 125 -80 q41 119 159 119q63 0 110.5 -45.5t47.5 -124.5v-924q0 -53 -48 -82t-116 -29q-66 0 -115 29t-49 80q-127 -106 -274 -107q-240 0 -381 189q-129 170 -129 414zM319 584q0 -113 62 -195q68 -88 180 -88q106 0 170 84q57 78 57 188q0 111 -61 192t-172 81q-113 0 -178 -82 q-58 -71 -58 -180z" />
<glyph unicode="&#xe3;" horiz-adv-x="1277" d="M193 1450q0 117 92 205t209 88q72 0 251 -76t230 -76q41 0 118 60.5t108 60.5q88 0 88 -123q0 -109 -81 -199t-190 -90q-102 0 -276 75t-223 75q-51 0 -131 -67.5t-109 -67.5q-43 0 -68 47q-18 39 -18 88zM0 578q0 244 131 411q145 188 397 189q57 0 142 -39 q74 -35 125 -80q41 119 159 119q63 0 110.5 -45.5t47.5 -124.5v-924q0 -53 -48 -82t-116 -29q-66 0 -115 29t-49 80q-127 -106 -274 -107q-240 0 -381 189q-129 170 -129 414zM319 584q0 -113 62 -195q68 -88 180 -88q106 0 170 84q57 78 57 188q0 111 -61 192t-172 81 q-113 0 -178 -82q-58 -71 -58 -180z" />
<glyph unicode="&#xe4;" horiz-adv-x="1277" d="M336 1466q0 70 43 119t119 49t123 -55q41 -49 41 -119q0 -66 -39 -111q-45 -49 -125 -49q-76 0 -119 49t-43 117zM830 1464q0 63 40.5 108.5t116.5 45.5t119 -46t43 -110q0 -63 -43 -110.5t-117 -47.5q-76 0 -121 52q-38 45 -38 108zM0 578q0 244 131 411 q145 188 397 189q57 0 142 -39q74 -35 125 -80q41 119 159 119q63 0 110.5 -45.5t47.5 -124.5v-924q0 -53 -48 -82t-116 -29q-66 0 -115 29t-49 80q-127 -106 -274 -107q-240 0 -381 189q-129 170 -129 414zM319 584q0 -113 62 -195q68 -88 180 -88q106 0 170 84 q57 78 57 188q0 111 -61 192t-172 81q-113 0 -178 -82q-58 -71 -58 -180z" />
<glyph unicode="&#xe5;" horiz-adv-x="1277" d="M369 1704q0 158 88 264q100 121 270 121q188 0 295 -119q94 -106 95 -264q0 -162 -97 -279q-106 -127 -280 -127t-277 127q-94 115 -94 277zM574 1679q0 -68 39 -113q41 -51 114 -51q86 0 136 51q43 43 43 111q0 72 -46.5 125t-123.5 53q-76 0 -119 -52t-43 -124zM0 578 q0 244 131 411q145 188 397 189q57 0 142 -39q74 -35 125 -80q41 119 159 119q63 0 110.5 -45.5t47.5 -124.5v-924q0 -53 -48 -82t-116 -29q-66 0 -115 29t-49 80q-127 -106 -274 -107q-240 0 -381 189q-129 170 -129 414zM319 584q0 -113 62 -195q68 -88 180 -88 q106 0 170 84q57 78 57 188q0 111 -61 192t-172 81q-113 0 -178 -82q-58 -71 -58 -180z" />
<glyph unicode="&#xe8;" horiz-adv-x="1265" d="M406 1458q0 43 23 86l198 363q47 84 146 84q63 0 112 -35t49 -84q0 -23 -12 -45l-227 -453q-37 -74 -119 -73q-66 0 -118 45.5t-52 111.5zM0 580q0 281 180 446q162 150 395 150q221 0 373 -138q168 -152 168 -409q0 -154 -102 -154h-647q55 -209 262 -209q74 0 147 29 q66 25 98 57q47 49 103 49q53 0 92 -43t39 -104q0 -100 -109 -172q-160 -106 -360 -107q-256 0 -440 160q-199 175 -199 445zM358 711h435q-25 92 -88 145q-55 47 -127 47q-74 0 -132 -49q-63 -51 -88 -143z" />
<glyph unicode="&#xe9;" horiz-adv-x="1265" d="M459 1442q0 109 70 137l315 137q47 20 90 21q70 0 113 -49.5t43 -110.5q0 -86 -76 -115l-420 -155q-20 -6 -37 -7q-45 0 -71.5 42.5t-26.5 99.5zM0 580q0 281 180 446q162 150 395 150q221 0 373 -138q168 -152 168 -409q0 -154 -102 -154h-647q55 -209 262 -209 q74 0 147 29q66 25 98 57q47 49 103 49q53 0 92 -43t39 -104q0 -100 -109 -172q-160 -106 -360 -107q-256 0 -440 160q-199 175 -199 445zM358 711h435q-25 92 -88 145q-55 47 -127 47q-74 0 -132 -49q-63 -51 -88 -143z" />
<glyph unicode="&#xea;" horiz-adv-x="1265" d="M74 1383q0 14 8 30l365 707q47 90 123 90q98 0 161 -123l336 -631q12 -25 13 -47q0 -45 -37 -75.5t-86 -30.5q-84 0 -127 86l-246 483l-270 -500q-39 -72 -121 -71q-47 0 -83 24.5t-36 57.5zM0 580q0 281 180 446q162 150 395 150q221 0 373 -138q168 -152 168 -409 q0 -154 -102 -154h-647q55 -209 262 -209q74 0 147 29q66 25 98 57q47 49 103 49q53 0 92 -43t39 -104q0 -100 -109 -172q-160 -106 -360 -107q-256 0 -440 160q-199 175 -199 445zM358 711h435q-25 92 -88 145q-55 47 -127 47q-74 0 -132 -49q-63 -51 -88 -143z" />
<glyph unicode="&#xeb;" horiz-adv-x="1265" d="M168 1466q0 70 43 119t119 49t123 -55q41 -49 41 -119q0 -66 -39 -111q-45 -49 -125 -49q-76 0 -119 49t-43 117zM662 1464q0 63 40.5 108.5t116.5 45.5t119 -46t43 -110q0 -63 -43 -110.5t-117 -47.5q-76 0 -121 52q-38 45 -38 108zM0 580q0 281 180 446 q162 150 395 150q221 0 373 -138q168 -152 168 -409q0 -154 -102 -154h-647q55 -209 262 -209q74 0 147 29q66 25 98 57q47 49 103 49q53 0 92 -43t39 -104q0 -100 -109 -172q-160 -106 -360 -107q-256 0 -440 160q-199 175 -199 445zM358 711h435q-25 92 -88 145 q-55 47 -127 47q-74 0 -132 -49q-63 -51 -88 -143z" />
<glyph unicode="&#xec;" horiz-adv-x="536" d="M31 1800q0 43 23 86l198 363q47 84 146 84q63 0 112 -35t49 -84q0 -23 -12 -45l-227 -453q-37 -74 -119 -73q-66 0 -118 45.5t-52 111.5zM0 1339q0 74 53 127.5t148 53.5q86 0 134 -54.5t48 -128.5q0 -72 -45 -123q-51 -55 -137 -55q-94 0 -150 58q-51 50 -51 122z M33 182v756q0 86 51 139q45 45 109 45q63 0 108 -45q47 -51 47 -139v-750q0 -90 -47 -139t-111 -49q-63 0 -110 48t-47 134z" />
<glyph unicode="&#xed;" horiz-adv-x="536" d="M84 1784q0 109 70 137l315 137q47 20 90 21q70 0 113 -49.5t43 -110.5q0 -86 -76 -115l-420 -155q-20 -6 -37 -7q-45 0 -71.5 42.5t-26.5 99.5zM0 1339q0 74 53 127.5t148 53.5q86 0 134 -54.5t48 -128.5q0 -72 -45 -123q-51 -55 -137 -55q-94 0 -150 58q-51 50 -51 122z M33 182v756q0 86 51 139q45 45 109 45q63 0 108 -45q47 -51 47 -139v-750q0 -90 -47 -139t-111 -49q-63 0 -110 48t-47 134z" />
<glyph unicode="&#xee;" horiz-adv-x="536" d="M-303 1725q0 14 8 30l365 707q47 90 123 90q98 0 161 -123l336 -631q12 -25 13 -47q0 -45 -37 -75.5t-86 -30.5q-84 0 -127 86l-246 483l-270 -500q-39 -72 -121 -71q-47 0 -83 24.5t-36 57.5zM0 1339q0 74 53 127.5t148 53.5q86 0 134 -54.5t48 -128.5q0 -72 -45 -123 q-51 -55 -137 -55q-94 0 -150 58q-51 50 -51 122zM33 182v756q0 86 51 139q45 45 109 45q63 0 108 -45q47 -51 47 -139v-750q0 -90 -47 -139t-111 -49q-63 0 -110 48t-47 134z" />
<glyph unicode="&#xef;" horiz-adv-x="536" d="M-205 1808q0 70 43 119t119 49t123 -55q41 -49 41 -119q0 -66 -39 -111q-45 -49 -125 -49q-76 0 -119 49t-43 117zM289 1806q0 63 40.5 108.5t116.5 45.5t119 -46t43 -110q0 -63 -43 -110.5t-117 -47.5q-76 0 -121 52q-38 45 -38 108zM0 1339q0 74 53 127.5t148 53.5 q86 0 134 -54.5t48 -128.5q0 -72 -45 -123q-51 -55 -137 -55q-94 0 -150 58q-51 50 -51 122zM33 182v756q0 86 51 139q45 45 109 45q63 0 108 -45q47 -51 47 -139v-750q0 -90 -47 -139t-111 -49q-63 0 -110 48t-47 134z" />
<glyph unicode="&#xf1;" horiz-adv-x="1177" d="M-39 1450q0 117 92 205t209 88q72 0 251 -76t230 -76q41 0 118 60.5t108 60.5q88 0 88 -123q0 -109 -81 -10A8B948AE5" />
<glyph unicode="&#xf2;" horiz-adv-x="1255" d="M397 1458q0 43 23 86l198 363q47 84 146 84q63 0 112 -35t49 -84q0 -23 -12 -45l-227 -453q-37 -74 -119 -73q-66 0 -118 45.5t-52 111.5zM0 575q0 246 139 414q158 188 428 189q246 0 400 -197q141 -178 141 -426q0 -240 -139 -399q-158 -180 -443 -181q-244 0 -393 189 q-133 167 -133 411zM328 580q0 -111 53 -187q61 -88 164 -88q115 0 182 82q61 76 61 182q0 109 -65 185q-74 86 -201 86q-90 0 -142 -77t-52 -183z" />
<glyph unicode="&#xf3;" horiz-adv-x="1255" d="M451 1442q0 109 70 137l315 137q47 20 90 21q70 0 113 -49.5t43 -110.5q0 -86 -76 -115l-420 -155q-20 -6 -37 -7q-45 0 -71.5 42.5t-26.5 99.5zM0 575q0 246 139 414q158 188 428 189q246 0 400 -197q141 -178 141 -426q0 -240 -139 -399q-158 -180 -443 -181 q-244 0 -393 189q-133 167 -133 411zM328 580q0 -111 53 -187q61 -88 164 -88q115 0 182 82q61 76 61 182q0 109 -65 185q-74 86 -201 86q-90 0 -142 -77t-52 -183z" />
<glyph unicode="&#xf4;" horiz-adv-x="1255" d="M66 1383q0 14 8 30l365 707q47 90 123 90q98 0 161 -123l336 -631q12 -25 13 -47q0 -45 -37 -75.5t-86 -30.5q-84 0 -127 86l-246 483l-270 -500q-39 -72 -121 -71q-47 0 -83 24.5t-36 57.5zM0 575q0 246 139 414q158 188 428 189q246 0 400 -197q141 -178 141 -426 q0 -240 -139 -399q-158 -180 -443 -181q-244 0 -393 189q-133 167 -133 411zM328 580q0 -111 53 -187q61 -88 164 -88q115 0 182 82q61 76 61 182q0 109 -65 185q-74 86 -201 86q-90 0 -142 -77t-52 -183z" />
<glyph unicode="&#xf5;" horiz-adv-x="1255" d="M20 1450q0 117 92 205t209 88q72 0 251 -76t230 -76q41 0 118 60.5t108 60.5q88 0 88 -123q0 -109 -81 -199t-190 -90q-102 0 -276 75t-223 75q-51 0 -131 -67.5t-109 -67.5q-43 0 -68 47q-18 39 -18 88zM0 575q0 246 139 414q158 188 428 189q246 0 400 -197 q141 -178 141 -426q0 -240 -139 -399q-158 -180 -443 -181q-244 0 -393 189q-133 167 -133 411zM328 580q0 -111 53 -187q61 -88 164 -88q115 0 182 82q61 76 61 182q0 109 -65 185q-74 86 -201 86q-90 0 -142 -77t-52 -183z" />
<glyph unicode="&#xf6;" horiz-adv-x="1255" d="M160 1466q0 70 43 119t119 49t123 -55q41 -49 41 -119q0 -66 -39 -111q-45 -49 -125 -49q-76 0 -119 49t-43 117zM654 1464q0 63 40.5 108.5t116.5 45.5t119 -46t43 -110q0 -63 -43 -110.5t-117 -47.5q-76 0 -121 52q-38 45 -38 108zM0 575q0 246 139 414 q158 188 428 189q246 0 400 -197q141 -178 141 -426q0 -240 -139 -399q-158 -180 -443 -181q-244 0 -393 189q-133 167 -133 411zM328 580q0 -111 53 -187q61 -88 164 -88q115 0 182 82q61 76 61 182q0 109 -65 185q-74 86 -201 86q-90 0 -142 -77t-52 -183z" />
<glyph unicode="&#xf9;" horiz-adv-x="1175" d="M332 1458q0 43 23 86l198 363q47 84 146 84q63 0 112 -35t49 -84q0 -23 -12 -45l-227 -453q-37 -74 -119 -73q-66 0 -118 45.5t-52 111.5zM0 444v529q0 78 49 123q43 39 107 39q63 0 110 -43t47 -119v-494q0 -86 60 -137q53 -47 129 -47q74 0 127 48t53 136v477 q0 84 49 131.5t119 47.5q68 0 117 -47.5t49 -131.5v-544q0 -256 -262 -379q-137 -64 -269 -65q-112 0 -221 46q-264 113 -264 430z" />
<glyph unicode="&#xfa;" horiz-adv-x="1175" d="M385 1442q0 109 70 137l315 137q47 20 90 21q70 0 113 -49.5t43 -110.5q0 -86 -76 -115l-420 -155q-20 -6 -37 -7q-45 0 -71.5 42.5t-26.5 99.5zM0 444v529q0 78 49 123q43 39 107 39q63 0 110 -43t47 -119v-494q0 -86 60 -137q53 -47 129 -47q74 0 127 48t53 136v477 q0 84 49 131.5t119 47.5q68 0 117 -47.5t49 -131.5v-544q0 -256 -262 -379q-137 -64 -269 -65q-112 0 -221 46q-264 113 -264 430z" />
<glyph unicode="&#xfb;" horiz-adv-x="1175" d="M0 1383q0 14 8 30l365 707q47 90 123 90q98 0 161 -123l336 -631q12 -25 13 -47q0 -45 -37 -75.5t-86 -30.5q-84 0 -127 86l-246 483l-270 -500q-39 -72 -121 -71q-47 0 -83 24.5t-36 57.5zM0 444v529q0 78 49 123q43 39 107 39q63 0 110 -43t47 -119v-494q0 -86 60 -137 q53 -47 129 -47q74 0 127 48t53 136v477q0 84 49 131.5t119 47.5q68 0 117 -47.5t49 -131.5v-544q0 -256 -262 -379q-137 -64 -269 -65q-112 0 -221 46q-264 113 -264 430z" />
<glyph unicode="&#xfc;" horiz-adv-x="1175" d="M96 1466q0 70 43 119t119 49t123 -55q41 -49 41 -119q0 -66 -39 -111q-45 -49 -125 -49q-76 0 -119 49t-43 117zM590 1464q0 63 40.5 108.5t116.5 45.5t119 -46t43 -110q0 -63 -43 -110.5t-117 -47.5q-76 0 -121 52q-38 45 -38 108zM0 444v529q0 78 49 123q43 39 107 39 q63 0 110 -43t47 -119v-494q0 -86 60 -137q53 -47 129 -47q74 0 127 48t53 136v477q0 84 49 131.5t119 47.5q68 0 117 -47.5t49 -131.5v-544q0 -256 -262 -379q-137 -64 -269 -65q-112 0 -221 46q-264 113 -264 430z" />
<glyph unicode="&#xfd;" horiz-adv-x="1150" d="M395 1442q0 109 70 137l315 137q47 20 90 21q70 0 113 -49.5t43 -110.5q0 -86 -76 -115l-420 -155q-20 -6 -37 -7q-45 0 -71.5 42.5t-26.5 99.5zM0 979q0 74 45 117q39 41 100 41q127 0 177 -140l174 -497l192 479q63 158 191 158q57 0 97 -43t40 -117q0 -61 -29 -131 l-491 -1190q-57 -139 -164 -139q-59 0 -105.5 46t-46.5 109q0 29 10 56q53 143 140 358q-129 324 -305 776q-25 64 -25 117z" />
<glyph unicode="&#xff;" horiz-adv-x="1458" d="M0 881q0 260 158 440q176 199 475 199t475 -199q158 -180 158 -440t-158 -441q-176 -201 -475 -200q-299 0 -475 200q-158 181 -158 441z" />
<glyph unicode="&#x152;" horiz-adv-x="2617" d="M1628 115v1255q0 66 42 108t105 42h553q74 0 119 -58q39 -51 39 -123q0 -63 -31 -104q-35 -47 -96 -47h-399v-293h368q61 0 96 -49t35 -115q0 -61 -28 -102q-33 -47 -88 -47h-383v-269h368q80 0 125 -53q41 -45 41 -113q0 -59 -32.5 -103t-83.5 -44h-633q-37 0 -77 38 t-40 77zM0 768q0 326 186 551q207 250 557 250q352 0 557 -246q182 -221 183 -545q0 -326 -185 -553q-207 -252 -555 -252q-352 0 -557 248q-186 225 -186 547zM365 768q0 -188 96 -319q104 -145 282 -146q231 0 332 242q47 115 47 230q0 110 -43 220q-94 242 -329 242 q-182 0 -289 -147q-96 -132 -96 -322z" />
<glyph unicode="&#x153;" horiz-adv-x="2521" d="M1255 580q0 281 180 446q162 150 395 150q221 0 373 -138q168 -152 168 -409q0 -154 -102 -154h-647q55 -209 262 -209q74 0 147 29q66 25 98 57q47 49 103 49q53 0 92 -43t39 -104q0 -100 -109 -172q-160 -106 -360 -107q-256 0 -440 160q-199 175 -199 445zM1613 711 h435q-25 92 -88 145q-55 47 -127 47q-74 0 -132 -49q-63 -51 -88 -143zM0 575q0 246 139 414q158 188 428 189q246 0 400 -197q141 -178 141 -426q0 -240 -139 -399q-158 -180 -443 -181q-244 0 -393 189q-133 167 -133 411zM328 580q0 -111 53 -187q61 -88 164 -88 q115 0 182 82q61 76 61 182q0 109 -65 185q-74 86 -201 86q-90 0 -142 -77t-52 -183z" />
<glyph unicode="&#x178;" horiz-adv-x="0" />
<glyph unicode="&#x2c6;" horiz-adv-x="1198" d="M0 748q0 14 8 30l365 707q47 90 123 90q98 0 161 -123l336 -631q12 -25 13 -47q0 -45 -37 -75.5t-86 -30.5021FB28A9A" />
<glyph unicode="&#x2dc;" horiz-adv-x="1288" d="M0 545q0 117 92 205t209 88q72 0 251 -76t230 -76q41 0 118 60.5t108 60.5q88 0 88 -123q0 -109 -81 -199t-190 -90q-102 0 -276 75t-223 75q-51 0 -131 -67.5t-109 -67.5q-43 0 -68 47q-18 39 -18 88z" />
<glyph unicode="&#x3bc;" horiz-adv-x="1179" d="M0 -305v1266q0 78 55 126q49 47 119 48q66 0 112 -47.5t46 -135.5v-526q0 -78 49 -119q41 -37 108 -37q76 0 137.5 48.5t61.5 123.5v512q0 88 49 138q43 45 109 45q70 0 121 -49.5t51 -133.5l-2 -821q0 -74 -49 -117t-115 -43q-59 0 -102 39t-43 113q-76 -135 -279 -135 q-47 0 -90 10v-270q0 -100 -57 -160q-49 -51 -121 -51q-66 0 -113 47t-47 129z" />
<glyph unicode="&#x2000;" horiz-adv-x="1300" />
<glyph unicode="&#x2001;" horiz-adv-x="2600" />
<glyph unicode="&#x2002;" horiz-adv-x="1300" />
<glyph unicode="&#x2003;" horiz-adv-x="2600" />
<glyph unicode="&#x2004;" horiz-adv-x="866" />
<glyph unicode="&#x2005;" horiz-adv-x="649" />
<glyph unicode="&#x2006;" horiz-adv-x="432" />
<glyph unicode="&#x2007;" horiz-adv-x="432" />
<glyph unicode="&#x2008;" horiz-adv-x="323" />
<glyph unicode="&#x2009;" horiz-adv-x="520" />
<glyph unicode="&#x200a;" horiz-adv-x="143" />
<glyph unicode="&#x2010;" horiz-adv-x="989" d="M20 600q0 63 36 108.5t100 45.5h518q63 0 100 -46t37 -108q0 -59 -36 -103t-101 -44h-518q-63 0 -99.5 44t-36.5 103z" />
<glyph unicode="&#x2011;" horiz-adv-x="989" d="M20 600q0 63 36 108.5t100 45.5h518q63 0 100 -46t37 -108q0 -59 -36 -103t-101 -44h-518q-63 0 -99.5 44t-36.5 103z" />
<glyph unicode="&#x2012;" horiz-adv-x="989" d="M20 600q0 63 36 108.5t100 45.5h518q63 0 100 -46t37 -108q0 -59 -36 -103t-101 -44h-518q-63 0 -99.5 44t-36.5 103z" />
<glyph unicode="&#x2013;" horiz-adv-x="1595" d="M0 600q0 63 36 108.5t101 45.5h1129q63 0 100 -46t37 -108q0 -59 -33 -102q-39 -45 -104 -45h-1129q-66 0 -101.5 44t-35.5 103z" />
<glyph unicode="&#x2014;" horiz-adv-x="1929" d="M0 600q0 63 36 108.5t101 45.5h1460q66 0 103 -46t37 -108q0 -59 -37 -103t-103 -44h-1460q-66 0 -101.5 44t-35.5 103z" />
<glyph unicode="&#x2018;" horiz-adv-x="724" d="M0 1018q0 51 31 104l182 314q61 104 166 104q63 0 108 -39t45 -98q0 -41 -24 -82l-215 -369q-53 -92 -141 -92q-59 0 -105.5 45t-46.5 113z" />
<glyph unicode="&#x2019;" horiz-adv-x="724" d="M0 1018q0 51 31 104l182 314q61 104 166 104q63 0 108 -39t45 -98q0 -41 -24 -82l-215 -369q-53 -92 -141 -92q-59 0 -105.5 45t-46.5 113z" />
<glyph unicode="&#x201a;" horiz-adv-x="653" d="M-72 -180q0 49 29 100l182 318q61 104 168 104q63 0 110.5 -39t47.5 -98q0 -41 -27 -86l-215 -363q-51 -86 -141 -86q-61 0 -107.5 42t-46.5 108z" />
<glyph unicode="&#x201c;" horiz-adv-x="890" d="M0 985v385q0 66 41 101.5t98 35.5t100.5 -36.5t43.5 -100.5v-385q0 -66 -41 -101.5t-99 -35.5q-57 0 -100 37t-43 100zM418 985v385q0 66 45 103q39 35 96 34q55 0 97 -35.5t42 -101.5v-385q0 -66 -41 -101.5t-98 -35.5t-96 35q-45 39 -45 102z" />
<glyph unicode="&#x201d;" horiz-adv-x="890" d="M0 985v385q0 66 41 101.5t98 35.5t100.5 -36.5t43.5 -100.5v-385q0 -66 -41 -101.5t-99 -35.5q-57 0 -100 37t-43 100zM418 985v385q0 66 45 103q39 35 96 34q55 0 97 -35.5t42 -101.5v-385q0 -66 -41 -101.5t-98 -35.5t-96 35q-45 39 -45 102z" />
<glyph unicode="&#x201e;" horiz-adv-x="1198" d="M-78 -180q0 49 31 100l182 318q59 104 168 104q63 0 109.5 -39t46.5 -98q0 -41 -25 -86l-215 -363q-51 -86 -141 -86q-61 0 -108.5 42t-47.5 108zM471 -180q0 49 31 100l182 318q59 104 168 104q63 0 109.5 -39t46.5 -98q0 -41 -25 -86l-215 -363q-51 -86 -141 -86 q-63 0 -109.5 42t-46.5 108z" />
<glyph unicode="&#x2022;" horiz-adv-x="1458" d="M0 881q0 260 158 440q176 199 475 199t475 -199q158 -180 158 -440t-158 -441q-176 -201 -475 -200q-299 0 -475 200q-158 181 -158 441z" />
<glyph unicode="&#x2026;" horiz-adv-x="1673" d="M0 190q0 76 49 129q57 59 152 60q86 0 137 -60q45 -55 45 -131q0 -78 -45 -131q-51 -59 -137 -59q-94 0 -147.5 57t-53.5 135zM549 190q0 76 52 132.5t149 56.5q86 0 137 -60q45 -55 45 -131q0 -78 -45 -131q-51 -59 -137 -59q-94 0 -147.5 57t-53.5 135zM1098 190 q0 76 52 132.5t148 56.5q86 0 134.5 -57.5t48.5 -133.5q0 -78 -45 -131q-51 -59 -138 -59q-94 0 -147 57t-53 135z" />
<glyph unicode="&#x202f;" horiz-adv-x="520" />
<glyph unicode="&#x2039;" horiz-adv-x="1357" d="M0 610q0 102 160 176l751 353q45 20 88 20q68 0 112 -42t44 -99q0 -88 -108 -133l-637 -262l637 -289q119 -51 118 -148q0 -47 -34.5 -78.5t-92.5 -31.5q-51 0 -110 26l-783 351q-145 63 -145 157z" />
<glyph unicode="&#x203a;" horiz-adv-x="1368" d="M0 184q0 86 106 133l650 287q-190 88 -615 264q-141 59 -141 168q0 76 74 107q82 33 198 -21l787 -368q117 -55 117 -152q0 -96 -117 -149l-838 -383q-37 -18 -76 -19q-61 0 -103 40t-42 93z" />
<glyph unicode="&#x2044;" horiz-adv-x="0" />
<glyph unicode="&#x205f;" horiz-adv-x="649" />
<glyph unicode="&#x2122;" horiz-adv-x="1611" d="M0 1511q0 80 72 80h374q90 0 91 -80q0 -78 -66 -77h-115v-516q0 -84 -86 -84q-82 0 -82 67v533h-125q-63 -0988643AE7" />
<glyph unicode="&#xe000;" horiz-adv-x="1140" d="M0 1140h1140v-1140h-1140v1140z" />
<glyph unicode="&#xfb01;" horiz-adv-x="1482" d="M946 1339q0 74 53 127.5t148 53.5q86 0 134 -54.5t48 -128.5q0 -72 -45 -123q-51 -55 -137 -55q-94 0 -150 58q-51 50 -51 122zM979 182v756q0 86 51 139q45 45 109 45q63 0 108 -45q47 -51 47 -139v-750q0 -90 -47 -139t-111 -49q-63 0 -110 48t-47 134zM0 989 q0 59 37 103.5t102 44.5h76v50v50q0 141 96 236q98 96 267 96q76 0 143 -56.5t67 -128.5q0 -63 -40 -81q-25 -12 -91 -13h-6q-51 0 -76 -6q-31 -8 -34 -45q0 2 0 -102q41 0 135 -2q70 0 110 -48q35 -43 35 -104q0 -59 -35.5 -102t-101.5 -45h-141v-682q0 -72 -47 -113 t-111 -41q-66 0 -109 41q-49 47 -49 129v666q-25 -2 -77 -2q-70 0 -113 49q-37 43 -37 106z" />
<glyph unicode="&#xfb02;" horiz-adv-x="1439" d="M946 174v1159q0 90 51 142q45 45 113 45t117 -46.5t49 -121.5v-1178q0 -84 -46 -130t-112 -46q-70 0 -121 48t-51 128zM0 989q0 59 37 103.5t102 44.5h76v50v50q0 141 96 236q98 96 267 96q76 0 143 -56.5t67 -128.5q0 -63 -40 -81q-25 -12 -91 -13h-6q-51 0 -76 -6 q-31 -8 -34 -45q0 2 0 -102q41 0 135 -2q70 0 110 -48q35 -43 35 -104q0 -59 -35.5 -102t-101.5 -45h-141v-682q0 -72 -47 -113t-111 -41q-66 0 -109 41q-49 47 -49 129v666q-25 -2 -77 -2q-70 0 -113 49q-37 43 -37 106z" />
<glyph unicode="&#xfb03;" horiz-adv-x="2428" d="M1892 1339q0 74 53 127.5t148 53.5q86 0 134 -54.5t48 -128.5q0 -72 -45 -123q-51 -55 -137 -55q-94 0 -150 58q-51 50 -51 122zM1925 182v756q0 86 51 139q45 45 109 45q63 0 108 -45q47 -51 47 -139v-750q0 -90 -47 -139t-111 -49q-63 0 -110 48t-47 134zM946 989 q0 59 37 103.5t102 44.5h76v50v50q0 141 96 236q98 96 267 96q76 0 143 -56.5t67 -128.5q0 -63 -40 -81q-25 -12 -91 -13h-6q-51 0 -76 -6q-31 -8 -34 -45q0 2 0 -102q41 0 135 -2q70 0 110 -48q35 -43 35 -104q0 -59 -35.5 -102t-101.5 -45h-141v-682q0 -72 -47 -113 t-111 -41q-66 0 -109 41q-49 47 -49 129v666q-25 -2 -77 -2q-70 0 -113 49q-37 43 -37 106zM0 989q0 59 37 103.5t102 44.5h76v50v50q0 141 96 236q98 96 267 96q76 0 143 -56.5t67 -128.5q0 -63 -40 -81q-25 -12 -91 -13h-6q-51 0 -76 -6q-31 -8 -34 -45q0 2 0 -102 q41 0 135 -2q70 0 110 -48q35 -43 35 -104q0 -59 -35.5 -102t-101.5 -45h-141v-682q0 -72 -47 -113t-111 -41q-66 0 -109 41q-49 47 -49 129v666q-25 -2 -77 -2q-70 0 -113 49q-37 43 -37 106z" />
<glyph unicode="&#xfb04;" horiz-adv-x="2385" d="M1892 174v1159q0 90 51 142q45 45 113 45t117 -46.5t49 -121.5v-1178q0 -84 -46 -130t-112 -46q-70 0 -121 48t-51 128zM946 989q0 59 37 103.5t102 44.5h76v50v50q0 141 96 236q98 96 267 96q76 0 143 -56.5t67 -128.5q0 -63 -40 -81q-25 -12 -91 -13h-6q-51 0 -76 -6 q-31 -8 -34 -45q0 2 0 -102q41 0 135 -2q70 0 110 -48q35 -43 35 -104q0 -59 -35.5 -102t-101.5 -45h-141v-682q0 -72 -47 -113t-111 -41q-66 0 -109 41q-49 47 -49 129v666q-25 -2 -77 -2q-70 0 -113 49q-37 43 -37 106zM0 989q0 59 37 103.5t102 44.5h76v50v50 q0 141 96 236q98 96 267 96q76 0 143 -56.5t67 -128.5q0 -63 -40 -81q-25 -12 -91 -13h-6q-51 0 -76 -6q-31 -8 -34 -45q0 2 0 -102q41 0 135 -2q70 0 110 -48q35 -43 35 -104q0 -59 -35.5 -102t-101.5 -45h-141v-682q0 -72 -47 -113t-111 -41q-66 0 -109 41q-49 47 -49 129 v666q-25 -2 -77 -2q-70 0 -113 49q-37 43 -37 106z" />
</font>
</defs>
</svg>
